Каникулы в Вегасе / National Lampoon\'s Vegas Vacation / Vegas Vacation (Стивен Кесслер / Stephen Kessler) [1997, США, комедия, BDRip 720p] MVO (R5) + MVO (Варус Видео) + MVO (Россия 1) + Sub Eng + Original Eng

Ответить на тему
 
Автор Сообщение

user ®

Стаж: 7 лет 7 месяцев

Сообщений: 20008

Пост Пост: #1 от 28-Янв-2016 23:51

[Цитировать]

Каникулы в Вегасе / National Lampoon's Vegas Vacation / Vegas Vacation
Страна: США
Жанр: комедия
Год выпуска: 1997
Продолжительность: 01:34:31
Перевод: Профессиональный (многоголосый закадровый) R5
Перевод 2: Профессиональный (многоголосый закадровый) Варус Видео
Перевод 3: Профессиональный (многоголосый закадровый) Россия 1
Cубтитры: английские
Оригинальная аудиодорожка: английский
Режиссер: Стивен Кесслер / Stephen Kessler
В ролях: Чеви Чейз, Беверли Д’Анджело, Рэнди Куэйд, Итэн Эмбри, Марисоль Николс, Мириам Флинн, Шаэ Д’Лин, Уэйн Ньютон, Зигфрид Фишбахер, Рой Хорн...
Описание: Семейство Грисуолдов во главе с папой Кларком полным составом отправляется на отдых в Лас-Вегас. Лас-Вегас, традиционно известный как игорный и развлекательный центр, встречает гостей во всем великолепии. Цирк, эстрада, карнавальные шествия и, конечно, бесчисленные казино, — ну как тут не соблазниться и не попытать счастья?!
Папа Кларк решает, что пусть вся семья развлекается каждый на свой лад. Его жена Эллен вначале возражает, но недостаточно активно. Ее тянет послушать блестящее исполнение песен местной знаменитости Уэйна Ньютона.
Сын Расти легко вошел в тусовку прожигателей жизни, а у младшей дочери Одри произошла сильная переоценка ценностей после того, как она примерила новое платье.
И, наконец, сам глава семьи, увлекшись блэк-джеком и покером, проиграл почти весь семейный бюджет. Отдыхавший поблизости кузен Эдди, большой оригинал, — даже он оказался не самым лучшим советчиком папе Кларку и тоже проигрался… Кто же знал, чем чреваты соблазны Лас-Вегаса?
Сэмпл: https://www.sendspace.com/file/4mjmdx
Тип релиза: BDRip 720p
Контейнер: MKV
Видео: MPEG-4 AVC, 8500 Кбит/c, 1280x720, 23.976 кадр/c
Аудио: 48 kHz, AC3 Dolby Digital, 3/2 (L,C,R,l,r) + LFE ch, ~448 kbps avg (MVO)
Аудио 2: 48 kHz, AC3 Dolby Digital, 2/0 (L,R) ch, ~192 kbps avg (MVO.VARUS.VIDEO)
Аудио 3: 48 kHz, AC3 Dolby Digital, 2/0 (L,R) ch, ~192 kbps avg (MVO.ROSSIYA.1)
Аудио 4: Английский (DTS, 6 ch, 1510 Кбит/c)
MediaInfo
Unique ID : 212685465725115682274614397425234482814 (0xA001BB104EEB29949818F95CD44C167E)
Format : Matroska
Format version : Version 2
File size : 7.15 GiB
Duration : 1h 34mn
Overall bit rate : 10.8 Mbps
Encoded date : UTC 2016-01-27 06:23:04
Writing application : mkvmerge v7.8.0 ('River Man') 32bit built on Apr 3 2015 12:11:22
Writing library : libebml v1.3.1 + libmatroska v1.4.2
Video
ID : 1
Format : AVC
Format/Info : Advanced Video Codec
Format profile : High@L4.1
Format settings, CABAC : Yes
Format settings, ReFrames : 8 frames
Codec ID : V_MPEG4/ISO/AVC
Duration : 1h 34mn
Bit rate : 8 500 Kbps
Width : 1 280 pixels
Height : 720 pixels
Display aspect ratio : 16:9
Frame rate mode : Constant
Frame rate : 23.976 fps
Color space : YUV
Chroma subsampling : 4:2:0
Bit depth : 8 bits
Scan type : Progressive
Bits/(Pixel*Frame) : 0.385
Stream size : 5.47 GiB (76%)
Title : Каникулы в Вегасе (MediaClub-kaspr)
Writing library : x264 core 130 r2273 b3065e6
Encoding settings : cabac=1 / ref=8 / deblock=1:-3:-3 / analyse=0x3:0x133 / me=umh / subme=11 / psy=1 / psy_rd=1.00:0.20 / mixed_ref=1 / me_range=32 / chroma_me=1 / trellis=2 / 8x8dct=1 / cqm=0 / deadzone=21,11 / fast_pskip=0 / chroma_qp_offset=-3 / threads=12 / lookahead_threads=2 / sliced_threads=0 / nr=0 / decimate=0 / interlaced=0 / bluray_compat=0 / constrained_intra=0 / bframes=8 / b_pyramid=2 / b_adapt=2 / b_bias=0 / direct=3 / weightb=1 / open_gop=0 / weightp=2 / keyint=250 / keyint_min=23 / scenecut=40 / intra_refresh=0 / rc=2pass / mbtree=0 / bitrate=8500 / ratetol=1.0 / qcomp=0.60 / qpmin=0 / qpmax=69 / qpstep=4 / cplxblur=20.0 / qblur=0.5 / ip_ratio=1.40 / pb_ratio=1.30 / aq=1:1.00
Default : Yes
Forced : Yes
Audio #1
ID : 2
Format : AC-3
Format/Info : Audio Coding 3
Mode extension : CM (complete main)
Format settings, Endianness : Big
Codec ID : A_AC3
Duration : 1h 34mn
Bit rate mode : Constant
Bit rate : 448 Kbps
Channel(s) : 6 channels
Channel positions : Front: L C R, Side: L R, LFE
Sampling rate : 48.0 KHz
Compression mode : Lossy
Stream size : 303 MiB (4%)
Title : MVO.R5
Language : Russian
Default : Yes
Forced : No
Audio #2
ID : 3
Format : AC-3
Format/Info : Audio Coding 3
Mode extension : CM (complete main)
Format settings, Endianness : Big
Codec ID : A_AC3
Duration : 1h 34mn
Bit rate mode : Constant
Bit rate : 192 Kbps
Channel(s) : 2 channels
Channel positions : Front: L R
Sampling rate : 48.0 KHz
Compression mode : Lossy
Stream size : 130 MiB (2%)
Title : MVO.VARUS.VIDEO
Language : Russian
Default : No
Forced : No
Audio #3
ID : 4
Format : AC-3
Format/Info : Audio Coding 3
Mode extension : CM (complete main)
Format settings, Endianness : Big
Codec ID : A_AC3
Duration : 1h 34mn
Bit rate mode : Constant
Bit rate : 192 Kbps
Channel(s) : 2 channels
Channel positions : Front: L R
Sampling rate : 48.0 KHz
Compression mode : Lossy
Stream size : 130 MiB (2%)
Title : MVO.ROSSIYA.1
Language : Russian
Default : No
Forced : No
Audio #4
ID : 5
Format : DTS
Format/Info : Digital Theater Systems
Mode : 16
Format settings, Endianness : Big
Codec ID : A_DTS
Duration : 1h 34mn
Bit rate mode : Constant
Bit rate : 1 509 Kbps
Channel(s) : 6 channels
Channel positions : Front: L C R, Side: L R, LFE
Sampling rate : 48.0 KHz
Bit depth : 24 bits
Compression mode : Lossy
Stream size : 1 020 MiB (14%)
Title : Original
Language : English
Default : No
Forced : No
Text
ID : 6
Format : UTF-8
Codec ID : S_TEXT/UTF8
Codec ID/Info : UTF-8 Plain Text
Language : English
Default : No
Forced : No
Menu
00:00:00.000 : en:Chapter 01
00:02:29.774 : en:Chapter 02
00:04:17.923 : en:Chapter 03
00:07:07.050 : en:Chapter 04
00:08:58.788 : en:Chapter 05
00:11:46.414 : en:Chapter 06
00:13:08.453 : en:Chapter 07
00:17:13.407 : en:Chapter 08
00:20:52.751 : en:Chapter 09
00:22:27.346 : en:Chapter 10
00:23:55.724 : en:Chapter 11
00:29:05.034 : en:Chapter 12
00:34:49.795 : en:Chapter 13
00:35:57.612 : en:Chapter 14
00:39:43.589 : en:Chapter 15
00:44:04.016 : en:Chapter 16
00:46:42.882 : en:Chapter 17
00:47:37.646 : en:Chapter 18
00:50:28.900 : en:Chapter 19
00:53:12.939 : en:Chapter 20
00:54:41.820 : en:Chapter 21
01:00:12.191 : en:Chapter 22
01:01:43.198 : en:Chapter 23
01:05:16.871 : en:Chapter 24
01:07:20.828 : en:Chapter 25
01:10:25.387 : en:Chapter 26
01:12:38.312 : en:Chapter 27
01:14:15.117 : en:Chapter 28
01:16:13.860 : en:Chapter 29
01:20:27.948 : en:Chapter 30
01:26:20.216 : en:Chapter 31
01:28:27.593 : en:Chapter 32
01:34:31.457 : en:Chapter 33
Скриншоты Сравнение
[url=http://***/forum/viewtopic.php?t=1150512]http://***/forum/viewtopic.php?t=1150512[/url]
http://screenshotcomparison.com/comparison/159614
Скачать

Скачать торрент!

Как скачивать? · Что такое торрент? · Рейтинг и ограничения

Сайт не распространяет и не хранит электронные версии произведений, а лишь предоставляет доступ к создаваемому пользователями каталогу ссылок на торрент-файлы, которые содержат только списки хеш-сумм

[Профиль] [ЛС]
Показать сообщения:    
Ответить на тему

Текущее время: Сегодня 06:00

Часовой пояс: GMT + 4



Вы не можете начинать темы
Вы не можете отвечать на сообщения
Вы не можете редактировать свои сообщения
Вы не можете удалять свои сообщения
Вы не можете голосовать в опросах
Вы не можете прикреплять файлы к сообщениям
Вы не можете скачивать файлы