Дедушка легкого поведения / Dirty Grandpa (Дэн Мазер / Dan Mazer) [2016, США, комедия, CAMRip] Dub

Ответить на тему
 
Автор Сообщение

user ®

Стаж: 7 лет 7 месяцев

Сообщений: 20008

Пост Пост: #1 от 28-Янв-2016 03:09

[Цитировать]

Дедушка легкого поведения / Dirty Grandpa
Страна: США / USA
Жанр: комедия
Год выпуска: 2016
Продолжительность: 01:35:33
Перевод : Профессиональный (дублированный)
Cубтитры: нет
Режиссер: Дэн Мазер / Dan MazerВ ролях:
Роберт Де Ниро / Robert De Niro - Dick Kelly
Зак Эфрон / Zac Efron - Jason Kelly
Зои Дойч / Zoey Deutch - Shadia
Обри Плаза / Aubrey Plaza - Lenore
Джейсон Манцукас / Jason Mantzoukas - Tan Pam
Дермот Малруни / Dermot Mulroney - David Kelly
Джулианна Хаф / Julianne Hough - Meredith
и др.
Описание: Джейсон, покладистый правильный парень, накануне свадьбы вляпывается в увеселительную поездку к морю со своим дедом, отставным генералом с легким нравом, бурной фантазией и вполне определенными потребностями… И, похоже, дедские каникулы изменят жизнь Джейсона навсегда!Доп. информация:
Качество видео: CAMRip
Формат видео: AVI
Видео кодек: XviD
Аудио кодек: MP3
Видео: 720x304 (1,80:1), 30,000 fps, XviD, 1970 kbps avg, 0.300 bit/pixel
Аудио : Rus 128.00 kbps avg, 48,0 kHz, 2 ch, MPEG Layer 3 Dub

MediaInfo

Общее
Полное имя : C:\Dirty Grandpa.2016.DUB.CAMRip_by medvezhonokkkk.avi
Формат : AVI
Формат/Информация : Audio Video Interleave
Размер файла : 1,41 Гбайт
Продолжительность : 1 ч. 35 м.
Общий поток : 2109 Кбит/сек
Программа кодирования : VirtualDubMod 1.5.10.2 (build 2540/release)
Библиотека кодирования : VirtualDubMod build 2540/release
Видео
Идентификатор : 0
Формат : MPEG-4 Visual
Профиль формата : Advanced Simple@L5
Параметр BVOP формата : 2
Параметр QPel формата : Нет
Параметр GMC формата : Без точки перехода
Параметр матрицы формата : Default (MPEG)
Идентификатор кодека : XVID
Идентификатор кодека/Подсказка : XviD
Продолжительность : 1 ч. 35 м.
Битрейт : 1970 Кбит/сек
Ширина : 720 пикселей
Высота : 304 пикселя
Соотношение сторон : 2,35:1
Частота кадров : 30,000 кадров/сек
Цветовое пространство : YUV
Субдискретизация насыщенности : 4:2:0
Битовая глубина : 8 бит
Тип развёртки : Прогрессивная
Метод сжатия : С потерями
Бит/(Пиксели*Кадры) : 0.300
Размер потока : 1,32 Гбайт (93%)
Библиотека кодирования : XviD 1.2.1 (UTC 2008-12-04)
Аудио
Идентификатор : 1
Формат : MPEG Audio
Версия формата : Version 1
Профиль формата : Layer 3
Идентификатор кодека : 55
Идентификатор кодека/Подсказка : MP3
Продолжительность : 1 ч. 35 м.
Вид битрейта : Постоянный
Битрейт : 128 Кбит/сек
Каналы : 2 канала
Частота : 48,0 КГц
Метод сжатия : С потерями
Размер потока : 87,5 Мбайт (6%)
Выравнивание : Соединение по промежуткам
Продолжительность промежутка : 33 мс. (1,00 видеокадр)
Время предзагрузки промежутка : 504 мс.
Библиотека кодирования : LAME3.98r
Настройки программы : -m s -V 4 -q 2 -lowpass 17 -b 128
Скриншот c названием фильма Скриншоты
Скачать

Скачать торрент!

Как скачивать? · Что такое торрент? · Рейтинг и ограничения

Сайт не распространяет и не хранит электронные версии произведений, а лишь предоставляет доступ к создаваемому пользователями каталогу ссылок на торрент-файлы, которые содержат только списки хеш-сумм

[Профиль] [ЛС]
Показать сообщения:    
Ответить на тему

Текущее время: Сегодня 00:24

Часовой пояс: GMT + 4



Вы не можете начинать темы
Вы не можете отвечать на сообщения
Вы не можете редактировать свои сообщения
Вы не можете удалять свои сообщения
Вы не можете голосовать в опросах
Вы не можете прикреплять файлы к сообщениям
Вы не можете скачивать файлы