Восемь голов в одной сумке / 8 Heads in a Duffel Bag (Том Шульман / Tom Schulman) [1997, США, Великобритания, криминал, комедия, WEB-DL 720p] DVO (Гланц и Королева R5) + AVO (В. Горчаков) + Sub Eng + Original Eng

Ответить на тему
 
Автор Сообщение

user ®

Стаж: 7 лет 7 месяцев

Сообщений: 20008

Пост Пост: #1 от 28-Янв-2016 00:03

[Цитировать]

Восемь голов в одной сумке / 8 Heads in a Duffel Bag
Страна: США, Великобритания
Жанр: Криминальная комедия
Год выпуска: 1997
Продолжительность: 01:35:15
Перевод 1: Профессиональный (двухголосый закадровый) Гланц и Королева (R5)
Перевод 2: Авторский (одноголосый закадровый) В. Горчаков
Cубтитры: Английские
Оригинальная аудиодорожка: Английский
Режиссер: Том Шульман
В ролях: Джо Пеши, Энди Комю, Кристи Свэнсон, Джордж Хэмилтон, Дайэн Кэннон, Дэвид Спэйд, Тодд Луизо, Энтони Мангано, Джо Бэзил, Эрнестин Мерсер, Фрэнк Роман, Говард Джордж
Описание: Томми Спинелли - наемный убийца, работающий на мафию. Убив по заказу восемь человек на тихоокеанском побережье Америки, он должен доставить их головы в Нью-Йорк, чтобы показать заказчику. В аэропорту происходит классическая путаница с багажом, и сумка с головами попадает в руки влюбленной пары. Мафия дает Спинелли два дня на то, чтобы он нашел пропажу. Томми вынужден мчаться за влюбленными и своей сумкой в Мехико.-Рейтинг
-Сэмпл
Тип релиза: WEB-DL 720p
Контейнер: MKV
Видео: 1280x674 (1.899), 23.976 fps, x264, ~3958 kbps
Аудио 1: Russian: 48 KHz, AC3, 2 (L,R) ch, 192 kbps | Двухголосый закадровый, Гланц и Королева (R5)
Аудио 2: Russian: 48 KHz, AC3, 2 (L,R) ch, 192 kbps | Одноголосый закадровый, В. Горчаков
Аудио 3: English: 48 KHz, AC3, 3/2 (L,C,R,l,r) + LFE ch, 448 kbps | Оригинал
Субтитры: English
Формат субтитров: softsub (SRT)
Дополнительно
Аудио дороги из [url=http://***/forum/viewtopic.php?t=3409864]этой[/url] раздачи, спасибо team_6strun
MediaInfo
Общее
Unique ID : 236659853677992146247258468994923179886 (0xB20B07A66E27716D9F399B4494952F6E)
Complete name : E:\video_rutracker\8.Heads.In.a.Duffel.Bag.1997.720p.WEB-DL.2xRus.Eng.Sub.mkv
Format : Matroska
Format version : Version 2
File size : 3,25 Гбайт
Duration : 1 ч. 35 м.
Overall bit rate : 4888 Кбит/сек
Encoded date : UTC 2016-01-25 20:10:19
Writing application : mkvmerge v8.3.0 ('Over the Horizon') 64bit
Writing library : libebml v1.3.1 + libmatroska v1.4.2
Attachements : cover.jpg
Видео
ID : 1
Format : AVC
Format/Info : Advanced Video Codec
Format profile : High@L3.1
Format settings, CABAC : Нет
Format settings, ReFrames : 2 кадра
Codec ID : V_MPEG4/ISO/AVC
Duration : 1 ч. 35 м.
Bit rate : 3958 Кбит/сек
Width : 1280 пикселей
Height : 674 пикселя
Display aspect ratio : 1,899
Frame rate mode : Постоянный
Frame rate : 23,976 кадра/сек
Color space : YUV
Chroma subsampling : 4:2:0
Bit depth : 8 бит
Scan type : Прогрессивная
Bits/(Pixel*Frame) : 0.191
Stream size : 2,63 Гбайт (81%)
Language : English
Default : Да
Forced : Нет
Color range : Limited
Color primaries : BT.709
Transfer characteristics : BT.709
Matrix coefficients : BT.709
Аудио #1
ID : 2
Format : AC-3
Format/Info : Audio Coding 3
Mode extension : CM (complete main)
Format settings, Endianness : Big
Codec ID : A_AC3
Duration : 1 ч. 35 м.
Bit rate mode : Постоянный
Bit rate : 192 Кбит/сек
Channel(s) : 2 канала
Channel positions : Front: L R
Sampling rate : 48,0 КГц
Frame rate : 31,250 кадров/сек (1536 spf)
Compression mode : С потерями
Stream size : 131 Мбайт (4%)
Title : DVO, Glanz & Koroleva
Language : Russian
Default : Да
Forced : Нет
Аудио #2
ID : 3
Format : AC-3
Format/Info : Audio Coding 3
Mode extension : CM (complete main)
Format settings, Endianness : Big
Codec ID : A_AC3
Duration : 1 ч. 35 м.
Bit rate mode : Постоянный
Bit rate : 192 Кбит/сек
Channel(s) : 2 канала
Channel positions : Front: L R
Sampling rate : 48,0 КГц
Frame rate : 31,250 кадров/сек (1536 spf)
Compression mode : С потерями
Stream size : 131 Мбайт (4%)
Title : AVO, Gorchakov
Language : Russian
Default : Нет
Forced : Нет
Аудио #3
ID : 4
Format : AC-3
Format/Info : Audio Coding 3
Mode extension : CM (complete main)
Format settings, Endianness : Big
Codec ID : A_AC3
Duration : 1 ч. 35 м.
Bit rate mode : Постоянный
Bit rate : 448 Кбит/сек
Channel(s) : 6 каналов
Channel positions : Front: L C R, Side: L R, LFE
Sampling rate : 48,0 КГц
Frame rate : 31,250 кадров/сек (1536 spf)
Compression mode : С потерями
Stream size : 305 Мбайт (9%)
Title : Original
Language : English
Default : Нет
Forced : Нет
Текст
ID : 5
Format : UTF-8
Codec ID : S_TEXT/UTF8
Codec ID/Info : UTF-8 Plain Text
Language : English
Default : Нет
Forced : Нет
Меню
00:00:00.000 : en:1
00:09:47.000 : en:2
00:21:15.000 : en:3
00:30:55.000 : en:4
00:42:55.000 : en:5
00:56:10.000 : en:6
01:13:30.000 : en:7
01:24:24.000 : en:8
Скриншоты
Скачать

Скачать торрент!

Как скачивать? · Что такое торрент? · Рейтинг и ограничения

Сайт не распространяет и не хранит электронные версии произведений, а лишь предоставляет доступ к создаваемому пользователями каталогу ссылок на торрент-файлы, которые содержат только списки хеш-сумм

[Профиль] [ЛС]
Показать сообщения:    
Ответить на тему

Текущее время: Сегодня 02:17

Часовой пояс: GMT + 4



Вы не можете начинать темы
Вы не можете отвечать на сообщения
Вы не можете редактировать свои сообщения
Вы не можете удалять свои сообщения
Вы не можете голосовать в опросах
Вы не можете прикреплять файлы к сообщениям
Вы не можете скачивать файлы