Идеальный парень / The Perfect Guy (Дэвид М. Розенталь / David M. Rosenthal) [2015, США, триллер, драма, BDRip 1080p] MVO (iTunes) + Sub Rus, Eng + Original Eng

Ответить на тему
 
Автор Сообщение

user ®

Стаж: 7 лет 7 месяцев

Сообщений: 20008

Пост Пост: #1 от 28-Янв-2016 00:03

[Цитировать]

Идеальный парень / The Perfect Guy
Страна: США
Студия: Rocklin / Faust, Screen Gems
Жанр: триллер, драма
Год выпуска: 2015
Продолжительность: 01:39:53
Перевод: Профессиональный (многоголосый закадровый) iTunes
Cубтитры: Rus, Eng
Оригинальная аудиодорожка: английский
Режиссер: Дэвид М. Розенталь / David M. Rosenthal
В ролях: Санаа Лэтэн, Майкл Или, Моррис Честнат, Л. Скотт Колдуэлл, Чарльз С. Даттон, Джон Гец, Тесс Харпер, Кэтрин Моррис, Рутина Уэсли, Холт МакКэллани
Описание: Казалось бы, у Ли Вон идеальная жизнь: хорошая работа и любящий парень. В свои 36 она готова сделать решающий шаг — создать семью. Но Дэйв, ее молодой человек, так не считает, он все еще боится обязательств. Это, в конечном счете, приводит их пару к разрыву. В то же время Ли встречает обаятельного незнакомца Картера. Он заботится о ее семье и друзьях, поэтому отношения молодых людей развиваются стремительно. Однако, его гипер опека со временем становится слишком навязчивой, даже зловещей. Когда Ли разрывает отношения, ее бывший любовник становится врагом. Ей приходится придумать хитрый план, чтобы окончательно избавиться от него.

Тип релиза: BDRip 1080p
Контейнер: MKV
Видео: MPEG-4 AVC, 8123 Кбит/с, 1920x804, 23,976 fps
Аудио: Rus, AC3, 384 kb/s (6 ch), 48 kHz
Аудио 2: Eng, DTS, 1510 kb/s (6 ch), 48 kHz
Формат субтитров: softsub (SRT)
MediaInfo
x264 [info]: frame I:1300 Avg QP:12.62 size:169264
x264 [info]: frame P:29035 Avg QP:13.39 size: 88519
x264 [info]: frame B:113364 Avg QP:15.51 size: 30393
Format : Matroska
Format version : Version 4 / Version 2
File size : 7.13 GiB
Duration : 1h 39mn
Overall bit rate : 10.2 Mbps
Movie name : Идеальный парень. (Tonik)
Encoded date : UTC 2016-01-26 03:53:56
Writing application : mkvmerge v7.1.0 ('Good Love') 64bit built on Jul 27 2014 13:06:55
Writing library : libebml v1.3.0 + libmatroska v1.4.1
_STATISTICS_WRITING_APP : mkvmerge v7.1.0 ('Good Love') 64bit built on Jul 27 2014 13:06:55
_STATISTICS_WRITING_DATE_UTC : 2016-01-26 03:53:56
_STATISTICS_TAGS : BPS DURATION NUMBER_OF_FRAMES NUMBER_OF_BYTES
DURATION : 01:35:07.325000000
NUMBER_OF_FRAMES : 1236
NUMBER_OF_BYTES : 36050
Video
ID : 1
Format : AVC
Format/Info : Advanced Video Codec
Format profile : High@L4.1
Format settings, CABAC : Yes
Format settings, ReFrames : 5 frames
Codec ID : V_MPEG4/ISO/AVC
Duration : 1h 39mn
Bit rate : 8 123 Kbps
Width : 1 920 pixels
Height : 804 pixels
Display aspect ratio : 2.40:1
Frame rate mode : Constant
Frame rate : 23.976 fps
Color space : YUV
Chroma subsampling : 4:2:0
Bit depth : 8 bits
Scan type : Progressive
Bits/(Pixel*Frame) : 0.219
Stream size : 5.67 GiB (79%)
Writing library : x264 core 148 r2638kMod 7599210
Encoding settings : cabac=1 / ref=5 / deblock=1:-3:-3 / analyse=0x3:0x133 / me=umh / subme=9 / psy=1 / fade_compensate=0.00 / psy_rd=1.05:0.00 / mixed_ref=1 / me_range=32 / chroma_me=1 / trellis=2 / 8x8dct=1 / cqm=0 / deadzone=21,11 / fast_pskip=0 / chroma_qp_offset=-2 / threads=6 / lookahead_threads=1 / sliced_threads=0 / nr=0 / decimate=0 / interlaced=0 / bluray_compat=0 / constrained_intra=0 / fgo=0 / bframes=8 / b_pyramid=2 / b_adapt=2 / b_bias=0 / direct=3 / weightb=1 / open_gop=0 / weightp=2 / keyint=250 / keyint_min=23 / scenecut=40 / intra_refresh=0 / rc=crf / mbtree=0 / crf=18.0000 / qcomp=0.60 / qpmin=0 / qpmax=69 / qpstep=4 / ip_ratio=1.40 / pb_ratio=1.30 / aq=3:0.95
Language : English
Default : Yes
Forced : No
DURATION : 01:39:53.446000000
NUMBER_OF_FRAMES : 143699
NUMBER_OF_BYTES : 6235643278
_STATISTICS_WRITING_APP : mkvmerge v7.1.0 ('Good Love') 64bit built on Jul 27 2014 13:06:55
_STATISTICS_WRITING_DATE_UTC : 2016-01-26 03:53:56
_STATISTICS_TAGS : BPS DURATION NUMBER_OF_FRAMES NUMBER_OF_BYTES
Audio #1
ID : 2
Format : AC-3
Format/Info : Audio Coding 3
Mode extension : CM (complete main)
Format settings, Endianness : Big
Codec ID : A_AC3
Duration : 1h 39mn
Bit rate mode : Constant
Bit rate : 384 Kbps
Channel(s) : 6 channels
Channel positions : Front: L C R, Side: L R, LFE
Sampling rate : 48.0 KHz
Bit depth : 16 bits
Compression mode : Lossy
Stream size : 274 MiB (4%)
Title : iTunes
Language : Russian
Default : Yes
Forced : No
Audio #2
ID : 3
Format : DTS
Format/Info : Digital Theater Systems
Mode : 16
Format settings, Endianness : Big
Codec ID : A_DTS
Duration : 1h 39mn
Bit rate mode : Constant
Bit rate : 1 509 Kbps
Channel(s) : 6 channels
Channel positions : Front: L C R, Side: L R, LFE
Sampling rate : 48.0 KHz
Bit depth : 24 bits
Compression mode : Lossy
Stream size : 1.05 GiB (15%)
Language : English
Default : No
Forced : No
Text #1
ID : 4
Format : UTF-8
Codec ID : S_TEXT/UTF8
Codec ID/Info : UTF-8 Plain Text
Language : Russian
Default : No
Forced : No
Text #2
ID : 5
Format : UTF-8
Codec ID : S_TEXT/UTF8
Codec ID/Info : UTF-8 Plain Text
Language : English
Default : No
Forced : No
Text #3
ID : 6
Format : UTF-8
Codec ID : S_TEXT/UTF8
Codec ID/Info : UTF-8 Plain Text
Title : SDH
Language : English
Default : No
Forced : No
Menu
00:00:00.000 : en:00:00:00.000
00:07:21.399 : en:00:07:21.399
00:12:58.444 : en:00:12:58.444
00:20:24.098 : en:00:20:24.098
00:27:45.289 : en:00:27:45.289
00:37:44.095 : en:00:37:44.095
00:42:55.782 : en:00:42:55.782
00:48:43.671 : en:00:48:43.671
00:53:06.767 : en:00:53:06.767
00:56:39.938 : en:00:56:39.938
01:02:52.352 : en:01:02:52.352
01:08:13.172 : en:01:08:13.172
01:15:14.552 : en:01:15:14.552
01:22:22.646 : en:01:22:22.646
01:28:39.272 : en:01:28:39.272
01:33:51.543 : en:01:33:51.543
Скриншоты
Скачать

Скачать торрент!

Как скачивать? · Что такое торрент? · Рейтинг и ограничения

Сайт не распространяет и не хранит электронные версии произведений, а лишь предоставляет доступ к создаваемому пользователями каталогу ссылок на торрент-файлы, которые содержат только списки хеш-сумм

[Профиль] [ЛС]
Показать сообщения:    
Ответить на тему

Текущее время: Сегодня 12:25

Часовой пояс: GMT + 4



Вы не можете начинать темы
Вы не можете отвечать на сообщения
Вы не можете редактировать свои сообщения
Вы не можете удалять свои сообщения
Вы не можете голосовать в опросах
Вы не можете прикреплять файлы к сообщениям
Вы не можете скачивать файлы