Кто я / Who Am I - Kein System ist sicher (Баран бо Одар / Baran bo Odar) [2014, Германия, триллер, BDRip 1080p] Dub + Sub Rus, Eng, Ger + Original Ger

Ответить на тему
 
Автор Сообщение

user ®

Стаж: 7 лет 7 месяцев

Сообщений: 20008

Пост Пост: #1 от 28-Янв-2016 00:03

[Цитировать]

-Кто я / Who Am I - Kein System ist sicher
«Каждый видит то, что хочет видеть»- -Страна: Германия
Жанр: Триллер
Год выпуска: 2014
Продолжительность: 01:41:48-Перевод: Профессиональный (дублированный)-Cубтитры: Русские, Английские, Немецкие
Оригинальная аудиодорожка: Немецкая-Режиссер: Баран бо Одар / Baran bo Odar-В ролях: Том Шиллинг, Элиас ЭмБарек, Вотан Вильке Мёринг, Антуан Моно мл., Ханна Херцшпрунг, Штефан Кампвирт, Трине Дюрхольм, Леопольд Хорнунг, Катарина Матц, Леонхард Каров, Арндт Шверинг-Зонрей, Матиас Нюкирш-Описание: Бенджамин - молодой компьютерный гений. С детства он мечтает стать супергероем из комиксов и покорить мир. Но в реальном мире он - Никто. Его жизнь неожиданно меняется, когда он встречает свою полную противоположность - харизматичного парня Макса.
Не желая жить в жестких рамках системы, они совершают череду дерзких кибер-преступлений. Восстав против равнодушного общества, они становятся кумирами для целого поколения.
Теперь Бенджамин не просто супергерой, он - самый разыскиваемый хакер в мире. Но что его ждет после погружения в альтернативную реальность? Кто же он на самом деле?...- - -Тип релиза: BDRip 1080p
Контейнер: MKV-Видео: MPEG-4 AVC, 1920x804 (2.40:1), 25.000 fps, ~11500 kbps avg, 0.298 bit/pixel
Аудио 1: 48 kHz, DTS, 3/2 (L,C,R,l,r) + LFE ch, ~1509 kbps avg
Аудио 2: 48 kHz, DTS, 3/2 (L,C,R,l,r) + LFE ch, ~1509 kbps avg-MediaInfo
Complete name : E:\РАЗДАЧИ\Who Am I (2014) BDRip 1080p.mkv
Format : Matroska
Format version : Version 2
File size : 10.5 GiB
Duration : 1h 41mn
Overall bit rate : 14.8 Mbps
Movie name : Who Am I (2014) BDRip 1080p
Encoded date : UTC 2016-01-26 16:23:06
Writing application : mkvmerge v3.0.0 ('Hang up your Hang-Ups') built on Dec 12 2009 15:20:35
Writing library : libebml v0.7.9 + libmatroska v0.8.1
Cover : Yes
Video
ID : 1
Format : AVC
Format/Info : Advanced Video Codec
Format profile : High@L4.1
Format settings, CABAC : Yes
Format settings, ReFrames : 5 frames
Codec ID : V_MPEG4/ISO/AVC
Duration : 1h 41mn
Bit rate : 11.5 Mbps
Width : 1 920 pixels
Height : 804 pixels
Display aspect ratio : 2.40:1
Frame rate mode : Constant
Frame rate : 25.000 fps
Color space : YUV
Chroma subsampling : 4:2:0
Bit depth : 8 bits
Scan type : Progressive
Bits/(Pixel*Frame) : 0.298
Stream size : 8.17 GiB (78%)
Writing library : x264 core 146 r0+2584 6cf85c6 t_mod_Custom [8-bit@all ]
Encoding settings : cabac=1 / ref=5 / deblock=1:-3:-3 / analyse=0x3:0x133 / me=umh / subme=10 / psy=1 / fade_compensate=0.00 / psy_rd=1.00:0.00 / mixed_ref=1 / me_range=24 / chroma_me=1 / trellis=2 / 8x8dct=1 / cqm=0 / deadzone=21,11 / fast_pskip=0 / chroma_qp_offset=-2 / threads=12 / lookahead_threads=3 / sliced_threads=0 / nr=0 / decimate=0 / interlaced=0 / bluray_compat=0 / constrained_intra=0 / fgo=0 / bframes=11 / b_pyramid=2 / b_adapt=2 / b_bias=0 / direct=3 / weightb=1 / open_gop=0 / weightp=2 / keyint=250 / keyint_min=25 / scenecut=40 / intra_refresh=0 / rc_lookahead=60 / rc=crf / mbtree=0 / crf=17.4000 / qcomp=0.60 / qpmin=0:0:0 / qpmax=69:69:69 / qpstep=4 / vbv_maxrate=62500 / vbv_bufsize=78125 / crf_max=0.0 / nal_hrd=none / filler=0 / ip_ratio=1.40 / pb_ratio=1.30 / aq=3:0.85 / aq-sensitivity=10.00 / aq-factor=1.00:1.00:1.00 / aq2=0 / aq3=0
Language : English
Default : No
Forced : No
Matrix coefficients : BT.709
Audio #1
ID : 2
Format : DTS
Format/Info : Digital Theater Systems
Mode : 16
Format settings, Endianness : Big
Codec ID : A_DTS
Duration : 1h 41mn
Bit rate mode : Constant
Bit rate : 1 509 Kbps
Channel(s) : 6 channels
Channel positions : Front: L C R, Side: L R, LFE
Sampling rate : 48.0 KHz
Bit depth : 16 bits
Compression mode : Lossy
Stream size : 1.07 GiB (10%)
Title : Дубляж
Language : Russian
Default : Yes
Forced : No
Audio #2
ID : 3
Format : DTS
Format/Info : Digital Theater Systems
Mode : 16
Format settings, Endianness : Big
Codec ID : A_DTS
Duration : 1h 41mn
Bit rate mode : Constant
Bit rate : 1 510 Kbps
Channel(s) : 6 channels
Channel positions : Front: L C R, Side: L R, LFE
Sampling rate : 48.0 KHz
Bit depth : 24 bits
Compression mode : Lossy
Stream size : 1.07 GiB (10%)
Title : Original
Language : German
Default : No
Forced : No
Text #1
ID : 4
Format : UTF-8
Codec ID : S_TEXT/UTF8
Codec ID/Info : UTF-8 Plain Text
Title : Russian
Language : Russian
Default : Yes
Forced : No
Text #2
ID : 5
Format : UTF-8
Codec ID : S_TEXT/UTF8
Codec ID/Info : UTF-8 Plain Text
Title : English
Language : English
Default : No
Forced : No
Text #3
ID : 6
Format : UTF-8
Codec ID : S_TEXT/UTF8
Codec ID/Info : UTF-8 Plain Text
Title : German
Language : German
Default : No
Forced : No
Menu
00:00:00.000 : en:00:00:00.000
00:04:27.080 : en:00:04:27.080
00:11:11.240 : en:00:11:11.240
00:18:06.320 : en:00:18:06.320
00:24:45.840 : en:00:24:45.840
00:29:37.960 : en:00:29:37.960
00:36:23.040 : en:00:36:23.040
00:41:53.920 : en:00:41:53.920
00:48:30.000 : en:00:48:30.000
00:55:18.920 : en:00:55:18.920
01:01:10.960 : en:01:01:10.960
01:06:13.920 : en:01:06:13.920
01:09:59.280 : en:01:09:59.280
01:17:00.160 : en:01:17:00.160
01:23:37.360 : en:01:23:37.360
01:37:55.440 : en:01:37:55.440
Скриншоты
Скачать

Скачать торрент!

Как скачивать? · Что такое торрент? · Рейтинг и ограничения

Сайт не распространяет и не хранит электронные версии произведений, а лишь предоставляет доступ к создаваемому пользователями каталогу ссылок на торрент-файлы, которые содержат только списки хеш-сумм

[Профиль] [ЛС]
Показать сообщения:    
Ответить на тему

Текущее время: Сегодня 14:35

Часовой пояс: GMT + 4



Вы не можете начинать темы
Вы не можете отвечать на сообщения
Вы не можете редактировать свои сообщения
Вы не можете удалять свои сообщения
Вы не можете голосовать в опросах
Вы не можете прикреплять файлы к сообщениям
Вы не можете скачивать файлы