Остров / Игра / Game (Абхинай Део / Abhinay Deo) [2011, Индия, Боевик, драма, криминал, HDRip] MVO (SDI Media)

Ответить на тему
 
Автор Сообщение

user ®

Стаж: 12 лет

Сообщений: 15092

Пост Пост: #1 от 27-Янв-2016 20:57

[Цитировать]

Остров / Игра / Game
Страна: Индия
Жанр: Боевик, драма, криминал
Год выпуска: 2011
Продолжительность: 02:14:34
Перевод: Профессиональный (многоголосый закадровый) SDI Media
Cубтитры: нет
Режиссер: Абхинай Део / Abhinay Deo
В ролях: Абхишек Баччан, Кангана Ранаут, Сара-Джейн Диас, Джимми Шергилл, Шахана Госвами, Боман Ирани, Анупам Кхер, Гаухар Кхан, Сикандер Кхер, Бенджамин Гилани, Дэвид Файрстар
Описание: Герой фильма миллиардер Кабир Мальхотра живёт в Греции на своём собственном острове Самос. Когда он узнаёт, что его дочь Майя от бывшей любовницы, погибла не в автомобильной катастрофе, а стала жертвой трёх криминальных личностей: Нила Менона, владельца казино в Стамбуле, О. П. Рамсея, претендующего на пост премьер — министра в Таиланде и киноактёра Викрам Капура, то он приглашает их в Афины, чтобы там определить, кто конкретно виноват в убийстве Майи. Он приглашает на остров также Тиша Кханна, журналистку из отдела криминальной хроники, которая до поры до времени не знает, что она — его вторая дочь. Однако на следующее утро Мальхотра находят мёртвым..
Доп. информация: Запись, сведение звука: oktober
Сэмпл: http://multi-up.com/1086263
Качество видео: HDRip (Исх. неизвестен)
Формат видео: AVI
Видео: XviD build 50, 720x304 (2.37:1), 24.000 fps, 1259 kbps avg
Аудио: AC3 Dolby Digital, 48 kHz, 2/0 (L,R) ch, 192.00 kbps
MediaInfo
General
Complete name : F:\Ostrov.2011.HDRip.avi
Format : AVI
Format/Info : Audio Video Interleave
File size : 1.37 GiB
Duration : 2h 14mn
Overall bit rate : 1 461 Kbps
Writing application : VirtualDubMod 1.5.10.3 | www.virtualdub-fr.org || (build 2550/release)
Writing library : VirtualDubMod build 2550/release
Video
ID : 0
Format : MPEG-4 Visual
Format profile : AdvancedSimple@L5
Format settings, BVOP : Yes
Format settings, QPel : No
Format settings, GMC : No warppoints
Format settings, Matrix : Default (MPEG)
Codec ID : XVID
Codec ID/Hint : XviD
Duration : 2h 14mn
Bit rate : 1 260 Kbps
Width : 720 pixels
Height : 304 pixels
Display aspect ratio : 2.35
Frame rate : 24.000 fps
Resolution : 24 bits
Colorimetry : 4:2:0
Scan type : Progressive
Bits/(Pixel*Frame) : 0.240
Stream size : 1.18 GiB (86%)
Writing library : XviD 1.2.1 (UTC 2008-12-04)
Audio
ID : 1
Format : AC-3
Format/Info : Audio Coding 3
Codec ID : 2000
Duration : 2h 14mn
Bit rate mode : Constant
Bit rate : 192 Kbps
Channel(s) : 2 channels
Channel positions : L R
Sampling rate : 48.0 KHz
Stream size : 185 MiB (13%)
Alignment : Split accross interleaves
Interleave, duration : 42 ms (1.00 video frame)
Interleave, preload duration : 500 ms
Скриншоты
Скачать

Скачать торрент! Остров / Игра / Game (Абхинай Део / Abhinay Deo) [2011, Индия, Боевик, драма, криминал, HDRip] MVO (SDI Media)

Как скачивать? · Что такое торрент? · Рейтинг и ограничения

Сайт не распространяет и не хранит электронные версии произведений, а лишь предоставляет доступ к создаваемому пользователями каталогу ссылок на торрент-файлы, которые содержат только списки хеш-сумм

[Профиль] [ЛС]
Показать сообщения:    
Ответить на тему

Текущее время: Сегодня 18:57

Часовой пояс: GMT + 4



Вы не можете начинать темы
Вы не можете отвечать на сообщения
Вы не можете редактировать свои сообщения
Вы не можете удалять свои сообщения
Вы не можете голосовать в опросах
Вы не можете прикреплять файлы к сообщениям
Вы не можете скачивать файлы