Марафон (Карен Оганесян / Karen Oganesyan) [2013, Россия, комедия, WEB-DLRip-AVC]

Ответить на тему
 
Автор Сообщение

user ®

Стаж: 7 лет 7 месяцев

Сообщений: 20008

Пост Пост: #1 от 26-Янв-2016 23:51

[Цитировать]

Марафон
«Пока есть цель, жизнь продолжается»


Страна: Россия
Студия: Синема Арт Студио, Cinemoon Productions
Жанр: комедия
Год выпуска: 2013
Продолжительность: 01:41:00
Перевод: Не требуется (русский)
Cубтитры: Нет
Режиссер:
Карен Оганесян / Karen Oganesyan
В ролях:
Михаил Пореченков, Екатерина Васильева, Юлия Пересильд, Анатолий Белый, Игорь Савочкин, Ольга Волкова, Сергей Газаров, Анна Михалкова, Мария Аронова, Ирина Пивоварова
Описание:
Жизнь Толика не удалась, спортивная карьера не состоялась, жена ушла к другому. Неуспешный, нелюбимый, безнадежный он потерял веру в себя. Все меняет случайная встреча со странной незнакомкой Анной Ильиничной, которая предлагает ему принять участие в необычном марафоне в далекой Америке...


Автор рипа: Stalker oK
Сэмпл: multi-up
Качество видео: WEB-DLRip-AVC
Формат видео: MKV
Видео кодек: AVC
Аудио кодек: AC3
Видео: 1674 Кбит/сек, 960*538 (16:9), в 25,000 кадр/сек, AVC
Аудио: Russian, 384 Кбит/сек, 48,0 КГц, 16 бит, 6 канала(ов), AC-3

MediaInfo
Общее
Уникальный идентификатор : 218631928312699203556971151445932044738 (0xA47AFA4E1044295A8714F4AEAEF2F1C2)
Полное имя : H:\Марафон\Marafon_2013_WEB_DLRip_AVC__stalkerok_new-team.mkv
Формат : Matroska
Размер файла : 1,45 Гбайт
Продолжительность : 1 ч. 41 м.
Общий поток : 2057 Кбит/сек
Название фильма : Marafon 2013 (New-Team) (Rip by Stalker oK)
Дата кодирования : UTC 2013-11-19 09:37:22
Программа кодирования : mkvmerge v6.2.0 ('Promised Land') built on Apr 28 2013 12:22:01
Библиотека кодирования : libebml v1.3.0 + libmatroska v1.4.0
Видео
Идентификатор : 1
Формат : AVC
Формат/Информация : Advanced Video Codec
Профиль формата : High@L4.1
Параметр CABAC формата : Да
Параметр ReFrames формата : 11 кадры
Идентификатор кодека : V_MPEG4/ISO/AVC
Продолжительность : 1 ч. 41 м.
Битрейт : 1674 Кбит/сек
Ширина : 960 пикс.
Высота : 538 пикс.
Соотношение сторон : 16:9
Частота кадров : 25,000 кадр/сек
Цветовое пространство : YUV
Подвыборка цветности : 4:2:0
Битовая глубина : 8 бит
Тип развёртки : Прогрессивная
Бит/(Пиксели*Кадры) : 0.130
Размер потока : 1,15 Гбайт (79%)
Библиотека кодирования : x264 core 133 r2334 a3ac64b
Настройки программы : cabac=1 / ref=11 / deblock=1:-2:-1 / analyse=0x3:0x133 / me=umh / subme=10 / psy=1 / psy_rd=1.00:0.15 / mixed_ref=1 / me_range=32 / chroma_me=1 / trellis=2 / 8x8dct=1 / cqm=0 / deadzone=21,11 / fast_pskip=0 / chroma_qp_offset=-3 / threads=6 / lookahead_threads=1 / sliced_threads=0 / nr=0 / decimate=0 / interlaced=0 / bluray_compat=0 / constrained_intra=0 / bframes=12 / b_pyramid=2 / b_adapt=2 / b_bias=0 / direct=3 / weightb=1 / open_gop=0 / weightp=2 / keyint=250 / keyint_min=25 / scenecut=40 / intra_refresh=0 / rc_lookahead=80 / rc=2pass / mbtree=0 / bitrate=1674 / ratetol=2.0 / qcomp=0.70 / qpmin=0 / qpmax=69 / qpstep=4 / cplxblur=20.0 / qblur=0.5 / vbv_maxrate=30000 / vbv_bufsize=35000 / nal_hrd=none / ip_ratio=1.40 / pb_ratio=1.30 / aq=2:0.90
Аудио
Идентификатор : 2
Формат : AC-3
Формат/Информация : Audio Coding 3
Расширение режима : CM (complete main)
Идентификатор кодека : A_AC3
Продолжительность : 1 ч. 41 м.
Вид битрейта : Постоянный
Битрейт : 384 Кбит/сек
Канал(ы) : 6 канала(ов)
Расположение каналов : Front: L C R, Side: L R, LFE
Частота : 48,0 КГц
Битовая глубина : 16 бит
Метод сжатия : С потерями
Размер потока : 277 Мбайт (19%)
Заголовок : AC3 5.1 @ 384 kbps
Язык : Russian
Меню
00:00:00.000 : en:Глава 1
00:04:49.000 : en:Глава 2
00:13:29.000 : en:Глава 3
00:22:52.000 : en:Глава 4
00:31:23.000 : en:Глава 5
00:41:50.000 : en:Глава 6
00:50:16.000 : en:Глава 7
00:59:32.000 : en:Глава 8
01:09:27.000 : en:Глава 9
01:18:35.000 : en:Глава 10
01:28:58.000 : en:Глава 11
01:37:58.000 : en:Глава 12
Скриншоты
Скачать

Скачать торрент!

Как скачивать? · Что такое торрент? · Рейтинг и ограничения

Сайт не распространяет и не хранит электронные версии произведений, а лишь предоставляет доступ к создаваемому пользователями каталогу ссылок на торрент-файлы, которые содержат только списки хеш-сумм

[Профиль] [ЛС]
Показать сообщения:    
Ответить на тему

Текущее время: Сегодня 08:02

Часовой пояс: GMT + 4



Вы не можете начинать темы
Вы не можете отвечать на сообщения
Вы не можете редактировать свои сообщения
Вы не можете удалять свои сообщения
Вы не можете голосовать в опросах
Вы не можете прикреплять файлы к сообщениям
Вы не можете скачивать файлы