ДухLess (Роман Прыгунов) [2012, драма, HDRip-AVC]

Ответить на тему
 
Автор Сообщение

user ®

Стаж: 7 лет 7 месяцев

Сообщений: 20008

Пост Пост: #1 от 26-Янв-2016 23:51

[Цитировать]

ДухLess Жанр: драма
Год выпуска: 2012
Продолжительность: 01:45:24
Режиссёр: Роман Прыгунов
В ролях: Данила Козловский (Максим), Артем Михалков (Вадим, друг Максима), Михаил Ефремов (Кондратов), Мария Андреева (Юля), Артур Смольянинов (Авдей), Мария Кожевникова, Сергей Белоголовцев (Володя Гулякин), Игорь Войнаровский (Пархоменко), Михаил Люлинецкий (банкир из провинции), Михаил Мухтасипов, Илья Рыбаков, Евгений Шиманович (сын олигарха, наркоман)
Описание: Главный герой фильма — 29-летний топ-менеджер крупного международного банка по имени Макс. Он уверен, что жизнь удалась, ведь у него есть то, о чём многие не могут даже и мечтать: дорогая машина, пентхаус и вечеринки. Свою жизнь Максим тратит на зарабатывание денег, а деньги — на ночные клубы, шикарных девушек, кокаин и прочие атрибуты, так называемой, гламурной жизни. Но в какой-то момент к герою приходит осознание того, что с его жизнью что-то не так. И его мир начинает рушиться, подобно карточному домику. В картине говорится о переоценке себя и жизни вокруг, о преодолении внутреннего кризиса.
|
Автор рипа: S.T.A.L.K.E.R.2 (aka Stalker oK)
Качество видео: HDRip-AVC [BDRip 1080p]
Формат видео: MKV
Видео: 1524 Кбит/сек, 960*408 (2,35:1), в 24,000 кадр/сек, AVC
Аудио: 448 Кбит/сек, 48,0 КГц, 16 бит, 6 канала(ов), AC-3
Отчёт MediaInfo
Общее
Уникальный идентификатор : 252632259640020281662113535448435916436 (0xBE0F3410714781E6888A31EB17A7FE94)
Полное имя : \\Sokol-пк\d\Temp\ДухLess_2012_HDRip_AVC.mkv
Формат : Matroska
Размер файла : 1,45 Гбайт
Продолжительность : 1 ч. 45 м.
Общий поток : 1969 Кбит/сек
Название фильма : ДухLess (2012) (rip by S.T.A.L.K.E.R.2)
Дата кодирования : UTC 2012-11-30 16:19:24
Программа кодирования : mkvmerge v5.6.0 ('Kenya Kane') built on May 27 2012 16:44:04
Библиотека кодирования : libebml v1.2.3 + libmatroska v1.3.0
Видео
Идентификатор : 1
Формат : AVC
Формат/Информация : Advanced Video Codec
Профиль формата : High@L4.1
Параметр CABAC формата : Да
Параметр ReFrames формата : 10 кадры
Идентификатор кодека : V_MPEG4/ISO/AVC
Продолжительность : 1 ч. 45 м.
Битрейт : 1524 Кбит/сек
Ширина : 960 пикс.
Высота : 408 пикс.
Соотношение сторон : 2,35:1
Частота кадров : 24,000 кадр/сек
Цветовое пространство : YUV
Подвыборка цветности : 4:2:0
Битовая глубина : 8 бит
Тип развёртки : Прогрессивная
Бит/(Пиксели*Кадры) : 0.162
Размер потока : 1,09 Гбайт (75%)
Библиотека кодирования : x264 core 125 r2200 999b753
Настройки программы : cabac=1 / ref=10 / deblock=1:-2:-1 / analyse=0x3:0x113 / me=umh / subme=11 / psy=1 / psy_rd=1.00:0.05 / mixed_ref=1 / me_range=32 / chroma_me=1 / trellis=2 / 8x8dct=1 / cqm=0 / deadzone=21,11 / fast_pskip=0 / chroma_qp_offset=-3 / threads=6 / lookahead_threads=1 / sliced_threads=0 / nr=0 / decimate=0 / interlaced=0 / bluray_compat=0 / constrained_intra=0 / bframes=12 / b_pyramid=2 / b_adapt=2 / b_bias=0 / direct=1 / weightb=1 / open_gop=0 / weightp=2 / keyint=240 / keyint_min=24 / scenecut=40 / intra_refresh=0 / rc_lookahead=40 / rc=2pass / mbtree=1 / bitrate=1524 / ratetol=1.0 / qcomp=0.60 / qpmin=10 / qpmax=51 / qpstep=4 / cplxblur=20.0 / qblur=0.5 / vbv_maxrate=50000 / vbv_bufsize=50000 / nal_hrd=none / ip_ratio=1.40 / aq=1:1.00
Язык : English
Аудио
Идентификатор : 2
Формат : AC-3
Формат/Информация : Audio Coding 3
Расширение режима : CM (complete main)
Идентификатор кодека : A_AC3
Продолжительность : 1 ч. 45 м.
Вид битрейта : Постоянный
Битрейт : 448 Кбит/сек
Канал(ы) : 6 канала(ов)
Расположение каналов : Front: L C R, Side: L R, LFE
Частота : 48,0 КГц
Битовая глубина : 16 бит
Метод сжатия : С потерями
Размер потока : 338 Мбайт (23%)
Заголовок : Dub
Язык : Russian
Меню
00:00:00.000 : en:Chapter 01
00:10:16.666 : en:Chapter 02
00:21:17.750 : en:Chapter 03
00:38:58.500 : en:Chapter 04
00:52:55.250 : en:Chapter 05
01:04:04.208 : en:Chapter 06
01:19:12.708 : en:Chapter 07
01:28:17.083 : en:Chapter 08
Скриншоты
Скачать

Скачать торрент!

Как скачивать? · Что такое торрент? · Рейтинг и ограничения

Сайт не распространяет и не хранит электронные версии произведений, а лишь предоставляет доступ к создаваемому пользователями каталогу ссылок на торрент-файлы, которые содержат только списки хеш-сумм

[Профиль] [ЛС]
Показать сообщения:    
Ответить на тему

Текущее время: Сегодня 12:30

Часовой пояс: GMT + 4



Вы не можете начинать темы
Вы не можете отвечать на сообщения
Вы не можете редактировать свои сообщения
Вы не можете удалять свои сообщения
Вы не можете голосовать в опросах
Вы не можете прикреплять файлы к сообщениям
Вы не можете скачивать файлы