Вуаль / The Veil (Фил Джоану / Phil Joanou) [2016, США, ужасы, WEB-DLRip] DVO (den904 & DeadSno) + Original Eng

Ответить на тему
 
Автор Сообщение

user ®

Стаж: 7 лет 7 месяцев

Сообщений: 20008

Пост Пост: #1 от 26-Янв-2016 23:51

[Цитировать]

Вуаль / The Veil
Страна: США / USA
Жанр: ужасы
Год выпуска: 2016
Продолжительность: 01:33:33
Перевод : Любительский (двухголосый закадровый) den904 & DeadSno
Cубтитры: нет
Режиссер: Фил Джоану / Phil JoanouВ ролях:
Джессика Альба / Jessica Alba - Maggie Price
Томас Джейн / Thomas Jane - Jim Jacobs
Лили Рэйб / Lily Rabe - Sarah Hope
Шеннон Мари Вудворд / Shannon Marie Woodward - Jill
Рейд Скотт / Reid Scott - Nick
Алекса Палладино / Aleksa Palladino - Karen Sweetzer
Ленни Джейкобсон / Lenny Jacobson - Ed
и др.
Описание: Спустя тридцать лет после того, как члены религиозного культа совершили массовое самоубийство, единственный выживший из них возвращается на место трагедии, прихватив с собой группу кинодокументалистов.Доп. информация:
Качество видео: WEB-DLRip [WEB-DL 720p]
Формат видео: AVI
Видео кодек: XviD
Аудио кодек: AC3
Видео: 720x304 (2,35:1), 23,976 fps, XviD, 1829 kbps avg, 0.349 bit/pixel
Аудио 1: Rus 192 kbps avg, 48,0 kHz, 2 ch, AC3 Dolby Digital DVO
Аудио 2: Eng 192 kbps avg, 48,0 kHz, 2 ch, AC3 Dolby Digital

MediaInfo

Общее
Полное имя : C:\Вуаль_The Veil.2016.DVO.WEB-DLRip_by medvezhonokkkk.avi
Формат : AVI
Формат/Информация : Audio Video Interleave
Размер файла : 1,46 Гбайт
Продолжительность : 1 ч. 33 м.
Общий поток : 2227 Кбит/сек
Программа кодирования : VirtualDubMod 1.5.10.3 | www.virtualdub-fr.org || (build 2550/release)
Библиотека кодирования : VirtualDubMod build 2550/release
Видео
Идентификатор : 0
Формат : MPEG-4 Visual
Профиль формата : Advanced Simple@L5
Параметр BVOP формата : 1
Параметр QPel формата : Нет
Параметр GMC формата : Без точки перехода
Параметр матрицы формата : Выборочная
Идентификатор кодека : XVID
Идентификатор кодека/Подсказка : XviD
Продолжительность : 1 ч. 33 м.
Битрейт : 1829 Кбит/сек
Ширина : 720 пикселей
Высота : 304 пикселя
Соотношение сторон : 2,35:1
Частота кадров : 23,976 кадра/сек
Цветовое пространство : YUV
Субдискретизация насыщенности : 4:2:0
Битовая глубина : 8 бит
Тип развёртки : Прогрессивная
Метод сжатия : С потерями
Бит/(Пиксели*Кадры) : 0.349
Размер потока : 1,20 Гбайт (82%)
Библиотека кодирования : XviD 73
Аудио #1
Идентификатор : 1
Формат : AC-3
Формат/Информация : Audio Coding 3
Расширение режима : CM (complete main)
Параметр Endianness формата : Big
Идентификатор кодека : 2000
Продолжительность : 1 ч. 33 м.
Вид битрейта : Постоянный
Битрейт : 192 Кбит/сек
Каналы : 2 канала
Расположение каналов : Front: L R
Частота : 48,0 КГц
Битовая глубина : 16 бит
Метод сжатия : С потерями
Размер потока : 128 Мбайт (9%)
Выравнивание : Разделение по промежуткам
Продолжительность промежутка : 42 мс. (1,00 видеокадр)
Время предзагрузки промежутка : 500 мс.
Аудио #2
Идентификатор : 2
Формат : AC-3
Формат/Информация : Audio Coding 3
Расширение режима : CM (complete main)
Параметр Endianness формата : Big
Идентификатор кодека : 2000
Продолжительность : 1 ч. 33 м.
Вид битрейта : Постоянный
Битрейт : 192 Кбит/сек
Каналы : 2 канала
Расположение каналов : Front: L R
Частота : 48,0 КГц
Битовая глубина : 16 бит
Метод сжатия : С потерями
Размер потока : 128 Мбайт (9%)
Выравнивание : Разделение по промежуткам
Продолжительность промежутка : 42 мс. (1,00 видеокадр)
Время предзагрузки промежутка : 500 мс.
Скриншот c названием фильма Скриншоты
Скачать

Скачать торрент!

Как скачивать? · Что такое торрент? · Рейтинг и ограничения

Сайт не распространяет и не хранит электронные версии произведений, а лишь предоставляет доступ к создаваемому пользователями каталогу ссылок на торрент-файлы, которые содержат только списки хеш-сумм

[Профиль] [ЛС]
Показать сообщения:    
Ответить на тему

Текущее время: Сегодня 18:27

Часовой пояс: GMT + 4



Вы не можете начинать темы
Вы не можете отвечать на сообщения
Вы не можете редактировать свои сообщения
Вы не можете удалять свои сообщения
Вы не можете голосовать в опросах
Вы не можете прикреплять файлы к сообщениям
Вы не можете скачивать файлы