Фронт за линией фронта (Игорь Гостев) [1977, военный, драма, DVDRip]

Ответить на тему
 
Автор Сообщение

user ®

Стаж: 7 лет 7 месяцев

Сообщений: 20008

Пост Пост: #1 от 26-Янв-2016 12:18

[Цитировать]

Фронт за линией фронта
Жанр: военный, драма
Год выпуска: 1977
Продолжительность: 02:43:56

Режиссёр: Игорь Гостев
В ролях: Вячеслав Тихонов, Иван Лапиков, Евгений Матвеев, Галина Польских, Валерия Заклунная, Олег Жаков, Иван Переверзев, Юрий Толубеев, Ханньо Хассе, Харри Питч, Гирт Яковлев, Игорь Ледогоров, Георгий Николаенко, Мати Клоорен, Михаил Жарковский, Александр Романцов, Афанасий Кочетков, Марина Дюжева, Светлана Суховей, Татьяна Божок
Описание: Двухсерийиный фильм продолжает повествование фильма «Фронт без флангов», действие происходит зимой 1943 — в начале 1944 годов.Отряд во главе с опытным чекистом майором Млынским успешно сражается в Черных лесах с гестаповскими карателями и с регулярными частями гитлеровской армии. На Большую землю идут ценные разведданные. По доносу предателя гестаповцы арестуют жену Млынского и его сына Володю, желая с их помощью заманить командира отряда в ловушку. Однако стойкость супругов Млынских и помощь подпольщиков, оставленных в городе, срывают все планы карателей.
Качество видео: [url=http://***/forum/viewtopic.php?t=5127386]DVDRip[/url]
Формат видео: AVI
Видео: 688x352 (1.95:1), 25 fps, XviD build 73 ~1704 kbps avg, 0.28 bit/pixel
Аудио: 48 kHz, AC3 Dolby Digital, 2/0 (L,R) ch, ~192 kbps


Сравнение
[url=http://***/forum/viewtopic.php?t=1848579]http://***/forum/viewtopic.php?t=1848579[/url]
http://screenshotcomparison.com/comparison/159500
[url=http://***/forum/viewtopic.php?t=1765863]http://***/forum/viewtopic.php?t=1765863[/url]
http://screenshotcomparison.com/comparison/159501
MediaInfo
Общее
Полное имя : H:\Фронт.за.линией.фронта.1977.dvdrip_[2.18]_[teko].avi
Формат : AVI
Формат/Информация : Audio Video Interleave
Профиль формата : OpenDML
Размер файла : 2,18 Гбайт
Продолжительность : 2 ч. 43 м.
Общий поток : 1904 Кбит/сек
Программа кодирования : VirtualDubMod 1.5.10.3 | www.virtualdub-fr.org || (build 2550/release)
Библиотека кодирования : VirtualDubMod build 2550/release
Видео
Идентификатор : 0
Формат : MPEG-4 Visual
Профиль формата : Advanced Simple@L5
Параметр BVOP формата : 2
Параметр QPel формата : Нет
Параметр GMC формата : Без точки перехода
Параметр матрицы формата : Выборочная
Идентификатор кодека : XVID
Идентификатор кодека/Подсказка : XviD
Продолжительность : 2 ч. 43 м.
Битрейт : 1699 Кбит/сек
Ширина : 688 пикселей
Высота : 352 пикселя
Соотношение сторон : 1,955
Частота кадров : 25,000 кадров/сек
Цветовое пространство : YUV
Субдискретизация насыщенности : 4:2:0
Битовая глубина : 8 бит
Тип развёртки : Прогрессивная
Метод сжатия : С потерями
Бит/(Пиксели*Кадры) : 0.281
Размер потока : 1,95 Гбайт (89%)
Библиотека кодирования : XviD 73
Аудио
Идентификатор : 1
Формат : AC-3
Формат/Информация : Audio Coding 3
Расширение режима : CM (complete main)
Параметр Endianness формата : Big
Идентификатор кодека : 2000
Продолжительность : 2 ч. 43 м.
Вид битрейта : Постоянный
Битрейт : 192 Кбит/сек
Каналы : 2 канала
Расположение каналов : Front: L R
Частота : 48,0 КГц
Битовая глубина : 16 бит
Метод сжатия : С потерями
Задержка видео : 750 мс.
Размер потока : 225 Мбайт (10%)
Выравнивание : Разделение по промежуткам
Продолжительность промежутка : 40 мс. (1,00 видеокадр)
Время предзагрузки промежутка : 500 мс.
Скриншоты Релиз группы:
[url=http://***/forum/viewtopic.php?t=1677970] [/url]
--
Скачать

Скачать торрент!

Как скачивать? · Что такое торрент? · Рейтинг и ограничения

Сайт не распространяет и не хранит электронные версии произведений, а лишь предоставляет доступ к создаваемому пользователями каталогу ссылок на торрент-файлы, которые содержат только списки хеш-сумм

[Профиль] [ЛС]
Показать сообщения:    
Ответить на тему

Текущее время: Сегодня 04:49

Часовой пояс: GMT + 4



Вы не можете начинать темы
Вы не можете отвечать на сообщения
Вы не можете редактировать свои сообщения
Вы не можете удалять свои сообщения
Вы не можете голосовать в опросах
Вы не можете прикреплять файлы к сообщениям
Вы не можете скачивать файлы