Жили-были... Навсегда (Анна Соколова) [2013, Россия, короткометражка, фэнтези, драма, WEB-DLRip-AVC] Sub (eng)

Ответить на тему
 
Автор Сообщение

user ®

Стаж: 7 лет 7 месяцев

Сообщений: 20008

Пост Пост: #1 от 26-Янв-2016 12:18

[Цитировать]

Жили-были... Навсегда Год выпуска: 2013
Страна: Россия
Жанр: короткометражка, фэнтези, драма
Продолжительность: 00:25:10
Перевод: не требуется
русские субтитры: нет-Режиссёр: Анна Соколова
В главных ролях: Дарья Мурусова, Илья Баранов-Описание: Фильм «Жили-были…навсегда» - это психологическая мелодрама о вечной человеческой мечте: о бессмертии. Всем нам когда-нибудь да приходилось мечтать о нем, но вечной ли жизни мы ждем, или нам просто хочется остановить прекрасное мгновение? Что делать, если вам достался эликсир бессмертия и вечной молодости, а времени, чтобы распорядиться им, только 2 часа? Поделитесь ли вы эликсиром и с кем? Герои фильма, Максим и Лиля, как раз и решают эти непростые вопросы.- -Качество: WEB-DLRip-AVC |рип от [url=http://***/forum/profile.php?mode=viewprofile&u=4058181]holoff[/url]|
Формат: MKV
Видео кодек: AVC
Аудио кодек: АС3
Видео: 1120x476, 23,976 fps, ~2202 kbps avg, 0.172 bit/pixel
Аудио: 48 kHz, AC3 Dolby Digital, 2/0 (L,R) ch, ~192 kbps
субтитры: английские (hardsub)
скриншоты MediaInfo
Общее
Уникальный идентификатор : 250710121334849624423294009233051277159 (0xBC9D03543A7CCE029637339D15F0D767)
Полное имя : D:\Жили-были... навсегда\Жили-были... навсегда.2013.WEB-DLRip-AVC.mkv
Формат : Matroska
Версия формата : Version 4 / Version 2
Размер файла : 440 Мбайт
Продолжительность : 25 м.
Общий поток : 2442 Кбит/сек
Дата кодирования : UTC 2016-01-25 23:57:47
Программа кодирования : mkvmerge v7.1.0 ('Good Love') 32bit built on Jul 27 2014 12:59:18
Библиотека кодирования : libebml v1.3.0 + libmatroska v1.4.1
DURATION : 00:25:10.752000000
NUMBER_OF_FRAMES : 47211
NUMBER_OF_BYTES : 36258048
_STATISTICS_WRITING_APP : mkvmerge v7.1.0 ('Good Love') 32bit built on Jul 27 2014 12:59:18
_STATISTICS_WRITING_DATE_UTC : 2016-01-25 23:57:47
_STATISTICS_TAGS : BPS DURATION NUMBER_OF_FRAMES NUMBER_OF_BYTES
Видео
Идентификатор : 1
Формат : AVC
Формат/Информация : Advanced Video Codec
Профиль формата : High@L4.1
Параметр CABAC формата : Да
Параметр ReFrames формата : 11 кадров
Идентификатор кодека : V_MPEG4/ISO/AVC
Продолжительность : 25 м.
Битрейт : 2202 Кбит/сек
Ширина : 1120 пикселей
Высота : 476 пикселей
Соотношение сторон : 2,35:1
Режим частоты кадров : Постоянный
Частота кадров : 23,976 кадра/сек
Цветовое пространство : YUV
Субдискретизация насыщенности : 4:2:0
Битовая глубина : 8 бит
Тип развёртки : Прогрессивная
Бит/(Пиксели*Кадры) : 0.172
Размер потока : 397 Мбайт (90%)
Библиотека кодирования : x264 core 148 r2638kMod 7599210
Настройки программы : cabac=1 / ref=11 / deblock=1:-2:-2 / analyse=0x3:0x133 / me=umh / subme=11 / psy=1 / fade_compensate=0.00 / psy_rd=1.00:0.05 / mixed_ref=1 / me_range=48 / chroma_me=1 / trellis=2 / 8x8dct=1 / cqm=0 / deadzone=21,11 / fast_pskip=0 / chroma_qp_offset=-3 / threads=12 / lookahead_threads=3 / sliced_threads=0 / nr=0 / decimate=1 / interlaced=0 / bluray_compat=0 / constrained_intra=0 / fgo=0 / bframes=12 / b_pyramid=2 / b_adapt=2 / b_bias=0 / direct=3 / weightb=1 / open_gop=0 / weightp=2 / keyint=250 / keyint_min=23 / scenecut=40 / intra_refresh=0 / rc_lookahead=60 / rc=crf / mbtree=0 / crf=17.5000 / qcomp=0.60 / qpmin=0 / qpmax=69 / qpstep=4 / vbv_maxrate=50000 / vbv_bufsize=62500 / crf_max=0.0 / nal_hrd=none / filler=0 / ip_ratio=1.40 / pb_ratio=1.30 / aq=3:0.90
Default : Да
Forced : Нет
DURATION : 00:25:10.760000000
NUMBER_OF_FRAMES : 36222
NUMBER_OF_BYTES : 424615224
_STATISTICS_WRITING_APP : mkvmerge v7.1.0 ('Good Love') 32bit built on Jul 27 2014 12:59:18
_STATISTICS_WRITING_DATE_UTC : 2016-01-25 23:57:47
_STATISTICS_TAGS : BPS DURATION NUMBER_OF_FRAMES NUMBER_OF_BYTES
Аудио
Идентификатор : 2
Формат : AC-3
Формат/Информация : Audio Coding 3
Расширение режима : CM (complete main)
Параметр Endianness формата : Big
Идентификатор кодека : A_AC3
Продолжительность : 25 м.
Вид битрейта : Постоянный
Битрейт : 192 Кбит/сек
Каналы : 2 канала
Расположение каналов : Front: L R
Частота : 48,0 КГц
Метод сжатия : С потерями
Размер потока : 34,6 Мбайт (8%)
Default : Да
Forced : Нет
Скачать

Скачать торрент!

Как скачивать? · Что такое торрент? · Рейтинг и ограничения

Сайт не распространяет и не хранит электронные версии произведений, а лишь предоставляет доступ к создаваемому пользователями каталогу ссылок на торрент-файлы, которые содержат только списки хеш-сумм

[Профиль] [ЛС]

Stryapchiy

Стаж: 6 лет

Сообщений: 19

Пост Пост: #2 от 18-Июн-2016 09:52 (спустя 4 месяца 22 дня)

[Цитировать]

не грузиться, нет сидирующих
[Профиль] [ЛС]
Показать сообщения:    
Ответить на тему

Текущее время: Сегодня 17:44

Часовой пояс: GMT + 4



Вы не можете начинать темы
Вы не можете отвечать на сообщения
Вы не можете редактировать свои сообщения
Вы не можете удалять свои сообщения
Вы не можете голосовать в опросах
Вы не можете прикреплять файлы к сообщениям
Вы не можете скачивать файлы