Мёртвые земли / The Dead Lands (Тоа Фрейзер / Toa Fraser) [2014, Новая Зеландия, Великобритания, боевик, BDRemux 1080p] MVO + DVO + VO + Sub Rus, Eng + Original Mao

Ответить на тему
 
Автор Сообщение

user ®

Стаж: 7 лет 7 месяцев

Сообщений: 20008

Пост Пост: #1 от 26-Янв-2016 03:03

[Цитировать]

Мёртвые земли / The Dead Lands
Страна: Новая Зеландия, Великобритания
Жанр: боевик
Год выпуска: 2014
Продолжительность: 01:47:14
Перевод 1: Любительский (многоголосый закадровый) - BaibaKo
Перевод 2: Любительский (двухголосый закадровый) - Coldfilm
Перевод 3: Одноголосый закадровый - PashaUp
Cубтитры: русские, английские
Оригинальная аудиодорожка: маори
Режиссер: Тоа Фрейзер / Toa Fraser
В ролях: Джеймс Роллестон, Лоуренс Макор, Те Кохе Тухака, Ксавьер Хоран, Раукура Туреи, Джордж Хинар, Рина Оуэн, Пена Хема Тейлор, Келвин Тутео
Описание: Действие происходит в доколониальной Новой Зеландии. Молодой сын вождя племени стремится отомстить убийцам своей семьи, изучая древние боевые искусства племени Маори при помощи легендарного воина.
Сэмпл: http://sendfile.su/1195842
Тип релиза: BDRemux 1080p
Контейнер: MKV
Видео: 1920x1080 (16:9), 23.976 fps, AVC, 25488 kbps, 0.593 bits/pixel
Аудио 1: Russian, 48.0 KHz, AC3, 6 ch, 448 Kbps - BaibaKo
Аудио 2: Russian, 48.0 KHz, AC3, 2 ch, 192 Kbps - Coldfilm
Аудио 3: Russian / DTS-HD Master Audio / 5.1 / 48 kHz / 3853 kbps / 24-bit (DTS Core: 5.1 / 48 kHz / 1509 kbps / 24-bit / DN -7dB) - PashaUp
Аудио 4: Maori / DTS-HD Master Audio / 5.1 / 48 kHz / 3855 kbps / 24-bit (DTS Core: 5.1 / 48 kHz / 1509 kbps / 24-bit / DN -4dB)
Аудио 5: English / DTS-HD Master Audio / 5.1 / 48 kHz / 2247 kbps / 16-bit (DTS Core: 5.1 / 48 kHz / 1509 kbps / 16-bit / DN -7dB)
Формат субтитров: softsub (SRT)
MediaInfo
General
Unique ID : 231634246635010366831607214349603042567 (0xAE432217B0DEF6F687EB79F5C2F7F507)
Complete name : C:\Torrent\The.Dead.Lands.2014.BDRemux.1080p.mkv
Format : Matroska
Format version : Version 4 / Version 2
File size : 26.9 GiB
Duration : 1h 47mn
Overall bit rate mode : Variable
Overall bit rate : 35.9 Mbps
Encoded date : UTC 2016-01-21 09:39:22
Writing application : mkvmerge v7.4.0 ('Circles') 64bit built on Dec 12 2014 12:19:56
Writing library : libebml v1.3.0 + libmatroska v1.4.1
_STATISTICS_WRITING_APP : mkvmerge v7.4.0 ('Circles') 64bit built on Dec 12 2014 12:19:56
_STATISTICS_WRITING_DATE_UTC : 2016-01-21 09:39:22
_STATISTICS_TAGS : BPS DURATION NUMBER_OF_FRAMES NUMBER_OF_BYTES
DURATION : 01:38:59.476000000
NUMBER_OF_FRAMES : 908
NUMBER_OF_BYTES : 19427
Video
ID : 1
Format : AVC
Format/Info : Advanced Video Codec
Format profile : High@L4.1
Format settings, CABAC : Yes
Format settings, ReFrames : 4 frames
Codec ID : V_MPEG4/ISO/AVC
Duration : 1h 47mn
Bit rate mode : Variable
Maximum bit rate : 36.0 Mbps
Width : 1 920 pixels
Height : 1 080 pixels
Display aspect ratio : 16:9
Frame rate mode : Constant
Frame rate : 23.976 fps
Color space : YUV
Chroma subsampling : 4:2:0
Bit depth : 8 bits
Scan type : Progressive
Language : Maori
Default : Yes
Forced : No
Audio #1
ID : 2
Format : AC-3
Format/Info : Audio Coding 3
Mode extension : CM (complete main)
Format settings, Endianness : Big
Codec ID : A_AC3
Duration : 1h 47mn
Bit rate mode : Constant
Bit rate : 448 Kbps
Channel(s) : 6 channels
Channel positions : Front: L C R, Side: L R, LFE
Sampling rate : 48.0 KHz
Bit depth : 16 bits
Compression mode : Lossy
Stream size : 344 MiB (1%)
Language : Russian
Default : Yes
Forced : No
Audio #2
ID : 3
Format : AC-3
Format/Info : Audio Coding 3
Mode extension : CM (complete main)
Format settings, Endianness : Big
Codec ID : A_AC3
Duration : 1h 47mn
Bit rate mode : Constant
Bit rate : 192 Kbps
Channel(s) : 2 channels
Channel positions : Front: L R
Sampling rate : 48.0 KHz
Bit depth : 16 bits
Compression mode : Lossy
Stream size : 147 MiB (1%)
Language : Russian
Default : No
Forced : No
Audio #3
ID : 4
Format : DTS
Format/Info : Digital Theater Systems
Format profile : MA / Core
Mode : 16
Format settings, Endianness : Big
Codec ID : A_DTS
Duration : 1h 47mn
Bit rate mode : Variable
Bit rate : Unknown / 1 509 Kbps
Channel(s) : 6 channels
Channel positions : Front: L C R, Side: L R, LFE
Sampling rate : 48.0 KHz
Bit depth : 24 bits
Compression mode : Lossless / Lossy
Language : Russian
Default : No
Forced : No
Audio #4
ID : 5
Format : DTS
Format/Info : Digital Theater Systems
Format profile : MA / Core
Mode : 16
Format settings, Endianness : Big
Codec ID : A_DTS
Duration : 1h 47mn
Bit rate mode : Variable
Bit rate : Unknown / 1 509 Kbps
Channel(s) : 6 channels
Channel positions : Front: L C R, Side: L R, LFE
Sampling rate : 48.0 KHz
Bit depth : 24 bits
Compression mode : Lossless / Lossy
Language : Maori
Default : No
Forced : No
Audio #5
ID : 6
Format : DTS
Format/Info : Digital Theater Systems
Format profile : MA / Core
Mode : 16
Format settings, Endianness : Big
Codec ID : A_DTS
Duration : 1h 47mn
Bit rate mode : Variable
Bit rate : Unknown / 1 509 Kbps
Channel(s) : 6 channels
Channel positions : Front: L C R, Side: L R, LFE
Sampling rate : 48.0 KHz
Bit depth : 16 bits
Compression mode : Lossless / Lossy
Language : English
Default : No
Forced : No
Text #1
ID : 7
Format : UTF-8
Codec ID : S_TEXT/UTF8
Codec ID/Info : UTF-8 Plain Text
Language : Russian
Default : No
Forced : No
Text #2
ID : 8
Format : UTF-8
Codec ID : S_TEXT/UTF8
Codec ID/Info : UTF-8 Plain Text
Language : English
Default : No
Forced : No
Menu
00:00:00.000 : en:00:00:00.000
00:12:53.856 : en:00:12:53.856
00:19:43.974 : en:00:19:43.974
00:27:59.261 : en:00:27:59.261
00:38:03.156 : en:00:38:03.156
00:45:50.247 : en:00:45:50.247
00:53:17.694 : en:00:53:17.694
01:00:31.127 : en:01:00:31.127
01:07:23.915 : en:01:07:23.915
01:20:29.950 : en:01:20:29.950
01:28:27.719 : en:01:28:27.719
01:41:40.761 : en:01:41:40.761
Скриншоты
Скачать

Скачать торрент!

Как скачивать? · Что такое торрент? · Рейтинг и ограничения

Сайт не распространяет и не хранит электронные версии произведений, а лишь предоставляет доступ к создаваемому пользователями каталогу ссылок на торрент-файлы, которые содержат только списки хеш-сумм

[Профиль] [ЛС]
Показать сообщения:    
Ответить на тему

Текущее время: Сегодня 00:12

Часовой пояс: GMT + 4



Вы не можете начинать темы
Вы не можете отвечать на сообщения
Вы не можете редактировать свои сообщения
Вы не можете удалять свои сообщения
Вы не можете голосовать в опросах
Вы не можете прикреплять файлы к сообщениям
Вы не можете скачивать файлы