Одиночка / Le Solitaire (Жак Дерэ / Jacques Deray) [1987, Франция, боевик, BDRip 1080p] Dub (Сов. дубляж) + MVO (Cinema Prestige) + 2x DVO (НТВ+, Twister) + Original (Fre) + Sub (Rus, Ukr, Eng)

Ответить на тему
 
Автор Сообщение

user ®

Стаж: 7 лет 7 месяцев

Сообщений: 20008

Пост Пост: #1 от 26-Янв-2016 03:03

[Цитировать]

ОдиночкаLe Solitaire-
-
-
Год выхода: 1987
Страна: Франция
Студия: Cerito Films, Sara Films
Жанр: Боевик
Продолжительность: 01:32:06
Перевод: Профессиональный (полное дублирование) Киностудия им. М. Горького
Перевод: Профессиональный (многоголосый закадровый) Cinema Prestige
Перевод: Профессиональный (двухголосый закадровый) НТВ+
Перевод: Профессиональный (двухголосый закадровый) Twister
Оригинальная аудиодорожка: Французский
Субтитры: Русские, украинские, английские--Режиссёр: Жак Дере / Jacques Deray
В ролях: Жан-Поль Бельмондо, Жан-Пьер Мало, Мишель Бон, Пьер Вернье, Франсуа Дюнойе, Франк Айя, Лоран Жандрон, Жан-Клод Де Горос, Ги Паннекин, Патриция Мальвуазен
Роли дублировали: Николай Караченцов, Володя Думчев, Алексей Иващенко, Андрей Гриневич, Андрей Мартынов, Валентин Грачёв
Описание: До каких границ может дойти служитель закона в борьбе с преступниками, которые границ не знают? Комиссара Стэна называли фашистом с куриными мозгами и стальными мускулами. Но он справедлив и надежен и не остановиться ни перед чем, чтобы отомстить за гибель своего напарника и друга...--Тип релиза: BDRip 1080p
Контейнер: MKV
Видео кодек: H264
Аудио кодек: AC3, DTS
Видео: MPEG4 Video (H264), 1920x1032, 25fps, 11.0 Mbps
Аудио #1: Русский, Dolby AC3, 48000 Hz, 2ch, 192 kbps - дубляж, Киностудия им. М. Горького
Аудио #2: Русский, Dolby AC3, 48000 Hz, 2ch, 192 kbps - многоголосый, Cinema Prestige
Аудио #3: Русский, Dolby AC3, 48000 Hz, 2ch, 192 kbps - двухголосый, НТВ+
Аудио #4: Русский, Dolby AC3, 48000 Hz, 2ch, 192 kbps - двухголосый, Twister
Аудио #5: Французский, DTS, 48000 Hz, 2ch, 1509 kbps
Формат субтитров: Softsub (SRT)
--Сэмпл
MediaInfo:
General
Unique ID : 218185821970093978660426592395372600338 (0xA4250F9069582E4797020BD1D8211C12)
Complete name : E:\Torrent 2\1987.Le.Solitaire.renta23.mkv
Format : Matroska
Format version : Version 4 / Version 2
File size : 8.54 GiB
Duration : 1h 32mn
Overall bit rate : 13.3 Mbps
Movie name : 1987 Одиночка / renta23
Encoded date : UTC 2016-01-22 13:19:16
Writing application : mkvmerge v8.3.0 ('Over the Horizon') 64bit
Writing library : libebml v1.3.1 + libmatroska v1.4.2
Video
ID : 1
Format : AVC
Format/Info : Advanced Video Codec
Format profile : High@L4.1
Format settings, CABAC : Yes
Format settings, ReFrames : 4 frames
Codec ID : V_MPEG4/ISO/AVC
Duration : 1h 32mn
Bit rate : 11.0 Mbps
Width : 1 920 pixels
Height : 1 032 pixels
Display aspect ratio : 1.85:1
Frame rate mode : Constant
Frame rate : 25.000 fps
Color space : YUV
Chroma subsampling : 4:2:0
Bit depth : 8 bits
Scan type : Progressive
Bits/(Pixel*Frame) : 0.222
Stream size : 7.08 GiB (83%)
Title : 1987 Одиночка
Writing library : x264 core 146 r2538 121396c
Encoding settings : cabac=1 / ref=4 / deblock=1:-1:-1 / analyse=0x3:0x133 / me=umh / subme=11 / psy=1 / psy_rd=1.11:0.23 / mixed_ref=1 / me_range=32 / chroma_me=1 / trellis=2 / 8x8dct=1 / cqm=0 / deadzone=21,11 / fast_pskip=0 / chroma_qp_offset=-3 / threads=12 / lookahead_threads=3 / sliced_threads=0 / nr=0 / decimate=1 / interlaced=0 / bluray_compat=0 / constrained_intra=0 / bframes=12 / b_pyramid=2 / b_adapt=2 / b_bias=0 / direct=3 / weightb=1 / open_gop=0 / weightp=2 / keyint=250 / keyint_min=25 / scenecut=40 / intra_refresh=0 / rc_lookahead=60 / rc=2pass / mbtree=1 / bitrate=11000 / ratetol=1.0 / qcomp=0.60 / qpmin=0 / qpmax=69 / qpstep=4 / cplxblur=20.0 / qblur=0.5 / ip_ratio=1.40 / aq=1:1.00
Language : French
Default : Yes
Forced : No
Audio #1
ID : 2
Format : AC-3
Format/Info : Audio Coding 3
Mode extension : CM (complete main)
Format settings, Endianness : Big
Codec ID : A_AC3
Duration : 1h 32mn
Bit rate mode : Constant
Bit rate : 192 Kbps
Channel(s) : 2 channels
Channel positions : Front: L R
Sampling rate : 48.0 KHz
Frame rate : 31.250 fps (1536 spf)
Compression mode : Lossy
Stream size : 126 MiB (1%)
Title : Дубляж
Language : Russian
Default : Yes
Forced : No
Audio #2
ID : 3
Format : AC-3
Format/Info : Audio Coding 3
Mode extension : CM (complete main)
Format settings, Endianness : Big
Codec ID : A_AC3
Duration : 1h 32mn
Bit rate mode : Constant
Bit rate : 192 Kbps
Channel(s) : 2 channels
Channel positions : Front: L R
Sampling rate : 48.0 KHz
Frame rate : 31.250 fps (1536 spf)
Compression mode : Lossy
Stream size : 126 MiB (1%)
Title : Многоголосый закадровый, Cinema Prestige
Language : Russian
Default : No
Forced : No
Audio #3
ID : 4
Format : AC-3
Format/Info : Audio Coding 3
Mode extension : CM (complete main)
Format settings, Endianness : Big
Codec ID : A_AC3
Duration : 1h 32mn
Bit rate mode : Constant
Bit rate : 192 Kbps
Channel(s) : 2 channels
Channel positions : Front: L R
Sampling rate : 48.0 KHz
Frame rate : 31.250 fps (1536 spf)
Compression mode : Lossy
Stream size : 126 MiB (1%)
Title : Двухголосый закадровый, НТВ+
Language : Russian
Default : No
Forced : No
Audio #4
ID : 5
Format : AC-3
Format/Info : Audio Coding 3
Mode extension : CM (complete main)
Format settings, Endianness : Big
Codec ID : A_AC3
Duration : 1h 32mn
Bit rate mode : Constant
Bit rate : 192 Kbps
Channel(s) : 2 channels
Channel positions : Front: L R
Sampling rate : 48.0 KHz
Frame rate : 31.250 fps (1536 spf)
Compression mode : Lossy
Stream size : 126 MiB (1%)
Title : Двухголосый закадровый, Twister
Language : Russian
Default : No
Forced : No
Audio #5
ID : 6
Format : DTS
Format/Info : Digital Theater Systems
Mode : 16
Format settings, Endianness : Big
Codec ID : A_DTS
Duration : 1h 32mn
Bit rate mode : Constant
Bit rate : 1 509 Kbps
Channel(s) : 2 channels
Channel positions : Front: L R
Sampling rate : 48.0 KHz
Frame rate : 93.750 fps (512 spf)
Bit depth : 24 bits
Compression mode : Lossy
Stream size : 994 MiB (11%)
Language : French
Default : No
Forced : No
Text #1
ID : 7
Format : UTF-8
Codec ID : S_TEXT/UTF8
Codec ID/Info : UTF-8 Plain Text
Duration : 1h 29mn
Bit rate : 72 bps
Count of elements : 929
Stream size : 47.6 KiB (0%)
Language : Russian
Default : No
Forced : No
Text #2
ID : 8
Format : UTF-8
Codec ID : S_TEXT/UTF8
Codec ID/Info : UTF-8 Plain Text
Duration : 1h 29mn
Bit rate : 72 bps
Count of elements : 929
Stream size : 47.1 KiB (0%)
Language : Ukrainian
Default : No
Forced : No
Text #3
ID : 9
Format : UTF-8
Codec ID : S_TEXT/UTF8
Codec ID/Info : UTF-8 Plain Text
Duration : 1h 29mn
Bit rate : 41 bps
Count of elements : 929
Stream size : 27.3 KiB (0%)
Language : English
Default : No
Forced : No
Menu
00:00:00.000 : en:Chapter 01
00:09:10.480 : en:Chapter 02
00:18:43.200 : en:Chapter 03
00:24:01.760 : en:Chapter 04
00:30:31.560 : en:Chapter 05
00:38:46.400 : en:Chapter 06
00:50:38.520 : en:Chapter 07
01:01:39.680 : en:Chapter 08
01:10:19.960 : en:Chapter 09
01:16:31.600 : en:Chapter 10
01:21:40.520 : en:Chapter 11
01:30:11.480 : en:Chapter 12
Скриншоты:
Скачать

Скачать торрент!

Как скачивать? · Что такое торрент? · Рейтинг и ограничения

Сайт не распространяет и не хранит электронные версии произведений, а лишь предоставляет доступ к создаваемому пользователями каталогу ссылок на торрент-файлы, которые содержат только списки хеш-сумм

[Профиль] [ЛС]
Показать сообщения:    
Ответить на тему

Текущее время: Сегодня 14:10

Часовой пояс: GMT + 4



Вы не можете начинать темы
Вы не можете отвечать на сообщения
Вы не можете редактировать свои сообщения
Вы не можете удалять свои сообщения
Вы не можете голосовать в опросах
Вы не можете прикреплять файлы к сообщениям
Вы не можете скачивать файлы