Геркулес в Нью-Йорке / Hercules in New York (Артур Аллан Сейдельман / Arthur Allan Seidelman) [1969, США, комедия, фэнтези, приключения, BDRemux 1080p] MVO + AVO (Ю.Сербин) + Original Eng + Sub Rus, Eng

Ответить на тему
 
Автор Сообщение

user ®

Стаж: 7 лет 7 месяцев

Сообщений: 20008

Пост Пост: #1 от 26-Янв-2016 03:03

[Цитировать]

Геркулес в Нью-Йорке / Hercules in New York- Страна: США
Год выпуска: 1969
Студия: RAF Industries
Жанр: комедия, фэнтези, приключения, мифология
Продолжительность: 01:32:01
Перевод №1: профессиональный многоголосый закадровый
Перевод №2: авторский закадровый | Ю.Сербин
Оригинальные аудиодорожки: английские (оригинальная + переозвученная)
Cубтитры: русские, английские
Навигация по главам: присутствует-Режиссер: Артур Аллан Сейдельман / Arthur Allan Seidelman
Оператор: Лео Лебовитц / Leo Lebowitz
Композитор: Джон Баламос / John Balamos
В ролях: Арнольд Стэнг (Шварценеггер), Дебора Лумис, Джеймс Карен, Эрнест Грейвз, Танни МакДональд, Харольд Бурстейн, Мервин Голдсмит, Джордж Бартеньефф, Тайна Элг и др.

Описание: «Геркулес в Нью-Йорке» — приключенческий фильм, известный как первый игровой фильм, где снялся Арнольд Шварценеггер. Выход в прокат состоялся 25 февраля 1970 года.
Слоган: «The movie with MUSCLE»
Сюжет: Фильм начинается с того, что незаконнорожденный сын Зевса Геркулес просит отца позволить ему покинуть Олимп - обитель богов и отправиться в мир смертных. Зевс, мягко говоря, не восторге от этой идеи. Но Геркулес не прекращает попыток убедить отца. В конечном счёте, Зевс устаёт от сына и ударом молнии сбрасывает его с Олимпа. Геркулес отправляется на Землю и оказывается в современном Нью-Йорке…
Blu-ray
Интересные факты
  • Создатели фильма посчитали фамилию Арнольда слишком сложной, и в титрах он появился под псевдонимом «Арнольд Стэнг» («Арнольд Сильный»).
  • Изначально из-за сильного австрийского акцента герой Шварценеггера был переозвучен. Впоследствии, когда актёр достиг большой популярности, была выпущена оригинальная версия звуковой дорожки.
  • При организации съёмочного процесса картины, Джо Уайдер, известный всем Тренер Чемпионов", порекомендовал создателям картины молодого Арнольда Шварценеггера. На их вопрос, — Есть ли у него опыт актёрской игры?, — Джо обманул создателей, сказав, что он шекспирский актер, и что Арнольд блестяще сыграл Гамлета в Лондоне. Таким образом Шварценеггер получил первую роль в кино.
  • Сам Арнольд Шварценеггер считает этот фильм настолько ужасным, что даже предложил федеральным службам США использовать его для пытки преступников.
  • Имена, фигурирующие в фильме, «Зевс», «Немезида» и «Атлас» — древнегреческие, а «Геркулес», «Плутон», «Меркурий» и «Юнона» — древнеримские (в древнегреческой мифологии им соответствуют «Геракл», «Аид», «Гермес» и «Гера»).
-Тип релиза: BDRemux 1080p | [url=http://***/forum/viewtopic.php?t=4974437]BDRip 720p[/url]
Контейнер: MKV
Видео: H.264 / 1920x1080 (16:9) / 23.976 fps / 21901 kbps / High@L4.1
Аудио №1: AC3 2.0 / 16 bits / 48 KHz / 192 Kbps / Русский (MVO)
Аудио №2: AC3 2.0 / 16 bits / 48 KHz / 192 Kbps / Русский (AVO)
Аудио №3: AC3 2.0 / 16 bits / 48 KHz / 192 Kbps / Английский (Оригинал)
Аудио №4: DTS-HD MA 2.0 | DTS Core 2.0 / 16-bit / 48 kHz / 1039 kbps | 768 kbps / Английский (с переозвученным Арни)
Формат субтитров: softsub (SRT)
Аппаратная совместимость: Ремукс полностью совместим с железными медиаплеерами, проверено на телевизоре Panasonic TX-PR50VT60.

MediaInfo
Общее
Уникальный идентификатор : 213618043852003410890612760417814577188 (0xA0B556B71D37B57DA868B81EBD2A0024)
Полное имя : J:\КИНО\Геркулес в Нью-Йорке - Hercules in New York (1969)\Hercules.in.New.York.1969.BDRemux.1080p.mkv
Формат : Matroska
Версия формата : Version 4 / Version 2
Размер файла : 15,1 Гбайт
Продолжительность : 1 ч. 32 м.
Режим общего битрейта : Переменный
Общий поток : 23,5 Мбит/сек
Дата кодирования : UTC 2016-01-22 20:12:36
Программа кодирования : mkvmerge v8.6.1 ('Flying') 64bit
Библиотека кодирования : libebml v1.3.3 + libmatroska v1.4.4
Видео
Идентификатор : 1
Формат : AVC
Формат/Информация : Advanced Video Codec
Профиль формата : High@L4.1
Параметр CABAC формата : Да
Параметр ReFrames формата : 2 кадра
Параметр GOP формата : M=1, N=5
Идентификатор кодека : V_MPEG4/ISO/AVC
Продолжительность : 1 ч. 32 м.
Вид битрейта : Переменный
Битрейт : 21,9 Мбит/сек
Максимальный битрейт : 30,2 Мбит/сек
Ширина : 1920 пикселей
Высота : 1080 пикселей
Соотношение сторон : 16:9
Режим частоты кадров : Постоянный
Частота кадров : 23,976 (24000/1001) кадра/сек
Цветовое пространство : YUV
Субдискретизация насыщенности : 4:2:0
Битовая глубина : 8 бит
Тип развёртки : Прогрессивная
Бит/(Пиксели*Кадры) : 0.441
Размер потока : 14,1 Гбайт (93%)
Default : Да
Forced : Нет
Аудио #1
Идентификатор : 2
Формат : AC-3
Формат/Информация : Audio Coding 3
Расширение режима : CM (complete main)
Параметр Endianness формата : Big
Идентификатор кодека : A_AC3
Продолжительность : 1 ч. 32 м.
Вид битрейта : Постоянный
Битрейт : 192 Кбит/сек
Каналы : 2 канала
Расположение каналов : Front: L R
Частота : 48,0 КГц
Частота кадров : 31,250 кадров/сек (1536 spf)
Метод сжатия : С потерями
Размер потока : 126 Мбайт (1%)
Заголовок : MVO
Язык : Russian
Default : Да
Forced : Нет
Аудио #2
Идентификатор : 3
Формат : AC-3
Формат/Информация : Audio Coding 3
Расширение режима : CM (complete main)
Параметр Endianness формата : Big
Идентификатор кодека : A_AC3
Продолжительность : 1 ч. 32 м.
Вид битрейта : Постоянный
Битрейт : 192 Кбит/сек
Каналы : 2 канала
Расположение каналов : Front: L R
Частота : 48,0 КГц
Частота кадров : 31,250 кадров/сек (1536 spf)
Метод сжатия : С потерями
Размер потока : 126 Мбайт (1%)
Заголовок : Ю.Сербин
Язык : Russian
Default : Нет
Forced : Нет
Аудио #3
Идентификатор : 4
Формат : AC-3
Формат/Информация : Audio Coding 3
Расширение режима : CM (complete main)
Параметр Endianness формата : Big
Идентификатор кодека : A_AC3
Продолжительность : 1 ч. 32 м.
Вид битрейта : Постоянный
Битрейт : 192 Кбит/сек
Каналы : 2 канала
Расположение каналов : Front: L R
Частота : 48,0 КГц
Частота кадров : 31,250 кадров/сек (1536 spf)
Метод сжатия : С потерями
Размер потока : 126 Мбайт (1%)
Заголовок : Original
Язык : English
Default : Нет
Forced : Нет
Аудио #4
Идентификатор : 5
Формат : DTS
Формат/Информация : Digital Theater Systems
Профиль формата : MA / Core
Режим : 16
Параметр Endianness формата : Big
Идентификатор кодека : A_DTS
Продолжительность : 1 ч. 32 м.
Вид битрейта : Переменный / Постоянный
Битрейт : 1024 Кбит/сек / 768 Кбит/сек
Каналы : 2 канала
Расположение каналов : / Front: L R
Частота : 48,0 КГц
Частота кадров : 93,750 кадра/сек (512 spf)
Битовая глубина : 16 бит
Метод сжатия : Без потерь / Lossy
Размер потока : 684 Мбайт (4%)
Язык : English
Default : Нет
Forced : Нет
Текст #1
Идентификатор : 6
Формат : UTF-8
Идентификатор кодека : S_TEXT/UTF8
Идентификатор кодека/Информация : UTF-8 Plain Text
Продолжительность : 1 ч. 31 м.
Битрейт : 88 бит/сек
Count of elements : 1017
Размер потока : 59,3 Кбайт (0%)
Язык : Russian
Default : Нет
Forced : Нет
Текст #2
Идентификатор : 7
Формат : UTF-8
Идентификатор кодека : S_TEXT/UTF8
Идентификатор кодека/Информация : UTF-8 Plain Text
Продолжительность : 1 ч. 30 м.
Битрейт : 61 бит/сек
Count of elements : 1297
Размер потока : 40,8 Кбайт (0%)
Язык : English
Default : Нет
Forced : Нет
Меню
00:00:00.000 : en:Chapter 1
00:13:07.133 : en:Chapter 2
00:29:18.567 : en:Chapter 3
00:42:05.535 : en:Chapter 4
01:00:52.403 : en:Chapter 5
01:17:36.237 : en:Chapter 6
01:32:01.000 : en:Chapter 7
Скриншоты - Дополнительно
ВСЕ МОИ РАЗДАЧИ
Скачать

Скачать торрент!

Как скачивать? · Что такое торрент? · Рейтинг и ограничения

Сайт не распространяет и не хранит электронные версии произведений, а лишь предоставляет доступ к создаваемому пользователями каталогу ссылок на торрент-файлы, которые содержат только списки хеш-сумм

[Профиль] [ЛС]
Показать сообщения:    
Ответить на тему

Текущее время: Сегодня 00:21

Часовой пояс: GMT + 4



Вы не можете начинать темы
Вы не можете отвечать на сообщения
Вы не можете редактировать свои сообщения
Вы не можете удалять свои сообщения
Вы не можете голосовать в опросах
Вы не можете прикреплять файлы к сообщениям
Вы не можете скачивать файлы