Большие неприятности / Big Trouble (Барри Зонненфельд / Barry Sonnenfeld) [2002, США, триллер, комедия, криминал, WEB-DL 720p] MVO (Позитив) + DVO + AVO (А. Гаврилов) + VO (П. Гланц) + Sub Rus, Eng + Original Eng

Ответить на тему
 
Автор Сообщение

user ®

Стаж: 7 лет 7 месяцев

Сообщений: 20008

Пост Пост: #1 от 26-Янв-2016 03:03

[Цитировать]

Большие неприятности / Big Trouble
Страна: США
Жанр: Триллер, комедия, криминал
Год выпуска: 2002
Продолжительность: 01:25:26
Перевод 1: Профессиональный (многоголосый закадровый) Позитив
Перевод 2: Профессиональный (двухголосый закадровый)
Перевод 3: Авторский (одноголосый закадровый) А. Гаврилов
Перевод 4: Студийный (одноголосый закадровый) П. Гланц
Cубтитры: Русские, Английские
Оригинальная аудиодорожка: Английский
Режиссер: Барри Зонненфельд / Barry Sonnenfeld
В ролях: Тим Аллен, Рене Руссо, Стенли Туччи, Том Сайзмор, Джонни Ноксвил, Деннис Фарина, Джек Келер, Джанин Гарофало, Патрик Варбертон, Бен Фостер
Описание: Таинственный чемодан, набитый чем-то ценным, привлекает внимание совершенно разных людей, кардинально меняя жизни разведенного мужчины, влюбленной парочки, нескольких мошенников, парочки наемных убийц, двух агентов ФБР и еще нескольких человек, которые решили рискнуть своими жизнями ради того, чтобы сорвать куш.-Рейтинг
-Сэмпл
Тип релиза: WEB-DL 720p
Контейнер: MKV
Видео: 1278x720 (16:9), 23.976 fps, x264, ~4176 kbps
Аудио 1: Russian:48 kHz, AC3 Dolby Digital, 3/2 (L,C,R,l,r) + LFE ch, ~448 kbps | Многоголосый закадровый, Позитив
Аудио 2: Russian:48 kHz, AC3 Dolby Digital, 3/2 (L,C,R,l,r), ~448 kbps | Двухголосый закадровый
Аудио 3: Russian:48 kHz, AC3 Dolby Digital, 3/2 (L,C,R,l,r) + LFE ch, ~384 kbps | Одноголосый закадровый, А. Гаврилов
Аудио 4: Russian: 48 kHz, AC3 Dolby Digital, 3/2 (L,C,R,l,r) + LFE ch, ~384 kbps | Одноголосый закадровый, П. Гланц
Аудио 5: English: 48 kHz, AC3 Dolby Digital, 3/2 (L,C,R,l,r) + LFE ch, ~384 kbps | Оригинал
Субтитры №1: Russian
Субтитры №2: English (SDH)
Формат субтитров: softsub (SRT)
Дополнительно
Аудио дороги из [url=http://***/forum/viewtopic.php?t=3672219]этой[/url] раздачи, спасибо Captain_Max
MediaInfo
Общее
Unique ID : 214067507171892039709958602686789098638 (0xA10BE6F7C6C14D67989DCB5AC9209C8E)
Complete name : E:\video_rutracker\Big.Trouble.2002.720p.WEB-DL.4xRus.Eng.Sub.mkv
Format : Matroska
Format version : Version 2
File size : 3,63 Гбайт
Duration : 1 ч. 25 м.
Overall bit rate : 6089 Кбит/сек
Encoded date : UTC 2016-01-24 13:08:59
Writing application : mkvmerge v8.3.0 ('Over the Horizon') 64bit
Writing library : libebml v1.3.1 + libmatroska v1.4.2
Attachements : cover.jpg
Видео
ID : 1
Format : AVC
Format/Info : Advanced Video Codec
Format profile : High@L3.1
Format settings, CABAC : Нет
Format settings, ReFrames : 2 кадра
Codec ID : V_MPEG4/ISO/AVC
Duration : 1 ч. 25 м.
Bit rate : 3920 Кбит/сек
Width : 1278 пикселей
Height : 720 пикселей
Display aspect ratio : 16:9
Frame rate mode : Постоянный
Frame rate : 23,976 кадра/сек
Color space : YUV
Chroma subsampling : 4:2:0
Bit depth : 8 бит
Scan type : Прогрессивная
Bits/(Pixel*Frame) : 0.178
Stream size : 2,34 Гбайт (64%)
Language : English
Default : Да
Forced : Нет
Color range : Limited
Color primaries : BT.709
Transfer characteristics : BT.709
Matrix coefficients : BT.709
Аудио #1
ID : 2
Format : AC-3
Format/Info : Audio Coding 3
Mode extension : CM (complete main)
Format settings, Endianness : Big
Codec ID : A_AC3
Duration : 1 ч. 25 м.
Bit rate mode : Постоянный
Bit rate : 448 Кбит/сек
Channel(s) : 6 каналов
Channel positions : Front: L C R, Side: L R, LFE
Sampling rate : 48,0 КГц
Frame rate : 31,250 кадров/сек (1536 spf)
Compression mode : С потерями
Stream size : 274 Мбайт (7%)
Title : Многоголосый закадровый, Позитив
Language : Russian
Default : Да
Forced : Нет
Аудио #2
ID : 3
Format : AC-3
Format/Info : Audio Coding 3
Mode extension : CM (complete main)
Format settings, Endianness : Big
Codec ID : A_AC3
Duration : 1 ч. 25 м.
Bit rate mode : Постоянный
Bit rate : 448 Кбит/сек
Channel(s) : 6 каналов
Channel positions : Front: L C R, Side: L R, LFE
Sampling rate : 48,0 КГц
Frame rate : 31,250 кадров/сек (1536 spf)
Compression mode : С потерями
Stream size : 274 Мбайт (7%)
Title : Двухголосый закадровый
Language : Russian
Default : Нет
Forced : Нет
Аудио #3
ID : 4
Format : AC-3
Format/Info : Audio Coding 3
Mode extension : CM (complete main)
Format settings, Endianness : Big
Codec ID : A_AC3
Duration : 1 ч. 25 м.
Bit rate mode : Постоянный
Bit rate : 384 Кбит/сек
Channel(s) : 6 каналов
Channel positions : Front: L C R, Side: L R, LFE
Sampling rate : 48,0 КГц
Frame rate : 31,250 кадров/сек (1536 spf)
Compression mode : С потерями
Stream size : 235 Мбайт (6%)
Title : Одноголосый закадровый, А. Гаврилов
Language : Russian
Default : Нет
Forced : Нет
Аудио #4
ID : 5
Format : AC-3
Format/Info : Audio Coding 3
Mode extension : CM (complete main)
Format settings, Endianness : Big
Codec ID : A_AC3
Duration : 1 ч. 25 м.
Bit rate mode : Постоянный
Bit rate : 384 Кбит/сек
Channel(s) : 6 каналов
Channel positions : Front: L C R, Side: L R, LFE
Sampling rate : 48,0 КГц
Frame rate : 31,250 кадров/сек (1536 spf)
Compression mode : С потерями
Stream size : 235 Мбайт (6%)
Title : Одноголосый закадровый, П. Гланц
Language : Russian
Default : Нет
Forced : Нет
Аудио #5
ID : 6
Format : AC-3
Format/Info : Audio Coding 3
Mode extension : CM (complete main)
Format settings, Endianness : Big
Codec ID : A_AC3
Duration : 1 ч. 25 м.
Bit rate mode : Постоянный
Bit rate : 384 Кбит/сек
Channel(s) : 6 каналов
Channel positions : Front: L C R, Side: L R, LFE
Sampling rate : 48,0 КГц
Frame rate : 31,250 кадров/сек (1536 spf)
Compression mode : С потерями
Stream size : 235 Мбайт (6%)
Title : Original
Language : English
Default : Нет
Forced : Нет
Текст #1
ID : 7
Format : UTF-8
Codec ID : S_TEXT/UTF8
Codec ID/Info : UTF-8 Plain Text
Language : Russian
Default : Нет
Forced : Нет
Текст #2
ID : 8
Format : UTF-8
Codec ID : S_TEXT/UTF8
Codec ID/Info : UTF-8 Plain Text
Language : English
Default : Нет
Forced : Нет
Меню
00:00:00.000 : en:Opening Titles / Eliot Arnold Advertising
00:04:57.000 : en:Just Arrived In Miami
00:10:02.000 : en:A Better Neighborhood
00:16:04.000 : en:Squirt Gun
00:25:24.000 : en:Light And Sweet
00:30:22.000 : en:Good Manners
00:34:05.000 : en:Stickup
00:44:03.000 : en:Some Really Bad People
00:55:46.000 : en:Arrivals Or Departures?
01:03:14.000 : en:Fly By Air Flight #2038
01:09:30.000 : en:"Get The Suitcase Off The Plane!"
01:14:48.000 : en:A New Beginning / End Credits
Скриншоты
Скачать

Скачать торрент!

Как скачивать? · Что такое торрент? · Рейтинг и ограничения

Сайт не распространяет и не хранит электронные версии произведений, а лишь предоставляет доступ к создаваемому пользователями каталогу ссылок на торрент-файлы, которые содержат только списки хеш-сумм

[Профиль] [ЛС]
Показать сообщения:    
Ответить на тему

Текущее время: Сегодня 06:58

Часовой пояс: GMT + 4



Вы не можете начинать темы
Вы не можете отвечать на сообщения
Вы не можете редактировать свои сообщения
Вы не можете удалять свои сообщения
Вы не можете голосовать в опросах
Вы не можете прикреплять файлы к сообщениям
Вы не можете скачивать файлы