Прощай, Бафана / Goodbye Bafana (Билле Аугуст / Bille August) [2007, Германия, Франция, Бельгия, ЮАР, Италия, Великобритания, Люксембург, драма, биография, история, BDRip 720p] DVO + Sub Rus, Eng + Original Eng

Ответить на тему
 
Автор Сообщение

user ®

Стаж: 7 лет 7 месяцев

Сообщений: 20008

Пост Пост: #1 от 25-Янв-2016 06:18

[Цитировать]

Прощай, Бафана / Goodbye Bafana
Страна: Германия, Франция, Бельгия, ЮАР, Италия, Великобритания, Люксембург
Студия: Arsam International, Banana Films и др.
Жанр: драма, биография, история
Год выпуска: 2007
Продолжительность: 01:57:55
Перевод: Профессиональный (двухголосый закадровый)
Cубтитры: русские, английские
Оригинальная аудиодорожка: английский
Режиссер: Билле Аугуст / Bille August
В ролях: Джозеф Файнc, Деннис Хейсбёрт, Дайан Крюгер, Патрик Листер, Шило Хендерсон, Тайрон Кеог, Меган Смит, Джессика Мануэль, Фейт Ндуквана, Терри Фето
Описание: В основу ленты положена книга Джеймса Грегори и Боба Грэма, повествующая о белом южноафриканском расисте, в течение 20 лет охранявшем прославленного политзаключенного Нельсона Манделу, который в итоге коренным образом изменил его жизнь. Один из авторов книги Джеймс Грегори вырос на ферме в Транскее и с детства прекрасно говорил на африканском языке коса. Став тюремщиком, он пользовался этими знаниями, шпионя за Манделой и другими темнокожими заключенными, которые и не подозревали, что он понимает их речь.

Sample
Тип релиза: BDRip 720p - DON
Контейнер: MKV
Видео: MPEG4 AVC Video, H264, 16:9, 1280x534, 24 fps, 5949 Kbps
Аудио: Russian (AC3, 6 ch, 448 kbps, 16 bits, 48.0 KHz) - DVO
Аудио 2: English (AC3, 6 ch, 640 kbps, 16 bits, 48.0 KHz) - оригинал
Формат субтитров: softsub (SRT)

MediaInfo
General
Unique ID : 208142017142074621988561747009419259365 (0x9C96B1C0EA641292972B47D85022ADE5)
Complete name : E:\Goodbye Bafana 2007 BDRip 720p-DON.mkv
Format : Matroska
Format version : Version 4 / Version 2
File size : 5.91 GiB
Duration : 1h 57mn
Overall bit rate : 7 180 Kbps
Encoded date : UTC 2016-01-21 18:09:45
Writing application : mkvmerge v6.1.0 ('Old Devil') built on Mar 2 2013 14:32:37
Writing library : libebml v1.3.0 + libmatroska v1.4.0
Video
ID : 1
Format : AVC
Format/Info : Advanced Video Codec
Format profile : High@L4.1
Format settings, CABAC : Yes
Format settings, ReFrames : 12 frames
Codec ID : V_MPEG4/ISO/AVC
Duration : 1h 57mn
Bit rate : 5 949 Kbps
Width : 1 280 pixels
Height : 534 pixels
Display aspect ratio : 2.40:1
Frame rate mode : Constant
Frame rate : 24.000 fps
Color space : YUV
Chroma subsampling : 4:2:0
Bit depth : 8 bits
Scan type : Progressive
Bits/(Pixel*Frame) : 0.363
Stream size : 4.90 GiB (83%)
Writing library : x264 core 148 r2597+53 5548565 t_mod_Custom [8-bit@all X86_64]
Encoding settings : cabac=1 / ref=12 / deblock=1:-3:-3 / analyse=0x3:0x133 / me=tesa / subme=10 / psy=1 / fade_compensate=0.00 / psy_rd=0.90:0.00 / mixed_ref=1 / me_range=32 / chroma_me=1 / trellis=2 / 8x8dct=1 / cqm=0 / deadzone=21,11 / fast_pskip=0 / chroma_qp_offset=-2 / threads=12 / lookahead_threads=3 / sliced_threads=0 / nr=0 / decimate=1 / interlaced=0 / bluray_compat=0 / constrained_intra=0 / fgo=0 / bframes=11 / b_pyramid=2 / b_adapt=2 / b_bias=0 / direct=3 / weightb=1 / open_gop=0 / weightp=2 / keyint=241 / keyint_min=24 / scenecut=40 / intra_refresh=0 / rc_lookahead=60 / rc=crf / mbtree=0 / crf=17.0000 / qcomp=0.65 / qpmin=0:0:0 / qpmax=69:69:69 / qpstep=4 / vbv_maxrate=50000 / vbv_bufsize=62500 / crf_max=0.0 / nal_hrd=none / filler=0 / ip_ratio=1.30 / pb_ratio=1.20 / aq=3:0.80 / aq-sensitivity=10.00 / aq-factor=1.00:1.00:1.00 / aq2=0 / aq3=0 / zones=162958,169800,crf=20
Language : English
Default : Yes
Forced : No
Audio #1
ID : 2
Format : AC-3
Format/Info : Audio Coding 3
Mode extension : CM (complete main)
Format settings, Endianness : Big
Codec ID : A_AC3
Duration : 1h 57mn
Bit rate mode : Constant
Bit rate : 448 Kbps
Channel count : 6 channels
Channel positions : Front: L C R, Side: L R, LFE
Sampling rate : 48.0 KHz
Bit depth : 16 bits
Compression mode : Lossy
Stream size : 378 MiB (6%)
Language : Russian
Default : Yes
Forced : No
Audio #2
ID : 3
Format : AC-3
Format/Info : Audio Coding 3
Mode extension : CM (complete main)
Format settings, Endianness : Big
Codec ID : A_AC3
Duration : 1h 57mn
Bit rate mode : Constant
Bit rate : 640 Kbps
Channel count : 6 channels
Channel positions : Front: L C R, Side: L R, LFE
Sampling rate : 48.0 KHz
Bit depth : 16 bits
Compression mode : Lossy
Stream size : 540 MiB (9%)
Language : English
Default : No
Forced : No
Text #1
ID : 4
Format : UTF-8
Codec ID : S_TEXT/UTF8
Codec ID/Info : UTF-8 Plain Text
Language : Russian
Default : No
Forced : No
Text #2
ID : 5
Format : UTF-8
Codec ID : S_TEXT/UTF8
Codec ID/Info : UTF-8 Plain Text
Language : English
Default : No
Forced : No
Menu
00:00:00.000 : en:00:00:00.000
00:09:36.542 : en:00:09:36.542
00:25:33.667 : en:00:25:33.667
00:36:11.417 : en:00:36:11.417
00:44:54.583 : en:00:44:54.583
00:54:38.625 : en:00:54:38.625
01:02:08.667 : en:01:02:08.667
01:12:09.458 : en:01:12:09.458
01:20:24.792 : en:01:20:24.792
01:32:14.542 : en:01:32:14.542
01:41:00.042 : en:01:41:00.042
01:53:10.458 : en:01:53:10.458
Скриншоты
Скачать

Скачать торрент!

Как скачивать? · Что такое торрент? · Рейтинг и ограничения

Сайт не распространяет и не хранит электронные версии произведений, а лишь предоставляет доступ к создаваемому пользователями каталогу ссылок на торрент-файлы, которые содержат только списки хеш-сумм

[Профиль] [ЛС]
Показать сообщения:    
Ответить на тему

Текущее время: Сегодня 20:18

Часовой пояс: GMT + 4



Вы не можете начинать темы
Вы не можете отвечать на сообщения
Вы не можете редактировать свои сообщения
Вы не можете удалять свои сообщения
Вы не можете голосовать в опросах
Вы не можете прикреплять файлы к сообщениям
Вы не можете скачивать файлы