Звездный патруль: Легенда об Орине / Starchaser: The Legend of Orin (Стивен Хан / Steven Hahn) [1985, мультфильм, фантастика, приключения, DVDRip] AVO

Ответить на тему
 
Автор Сообщение

user ®

Стаж: 12 лет

Сообщений: 15145

Пост Пост: #1 от 24-Янв-2016 02:27

[Цитировать]

Звездный патруль: Легенда об Орине / Starchaser: The Legend of Orin
Страна: Корея Южная, США
Жанр: мультфильм, фантастика, приключения
Продолжительность: 01:40:15
Год выпуска: 1985
Перевод: Авторский (одноголосый, закадровый) (Алексеев)
Cубтитры: отсутствуют-Слоган «He alone has the power»-Режиссёр: Стивен Хан / Steven Hahn
Роли озвучивали: Джо Колиган, Кармен Ардженциано, Ноэль Норт, Энтони Де Лонгис, Tyke Caravelli, Лес Тремейн, Кен Сэнсом, Джон Мошитта мл., Дэрил Бартли, Джон Гарвуд-Описание:
Глубоко под землей в Мире Шахты живут люди, никогда не видевшие солнечного света и не верящие в его существование. Под управлением надсмотрщиков-роботов жестокого повелителя Зайгона они, каждый день рискуя своей жизнью, добывают для него рубидимитовые кристаллы, получая взамен жалкие подачки еды. И только один из них, Орин, случайно обнаружив волшебную рукоятку от меча, решает бросить вызов Зайгону, найти дорогу во внешний мир и освободить своих соплеменников.
-
Качество: DVDRip
Формат: AVI
Видео: 640x272 (2.35:1), 23.976 fps, XviD build 73 ~904 kbps avg, 0.22 bit/pixel
Аудио: 48 kHz, MPEG Layer 3, 2 ch, ~128.00 kbps avg-Исходник: DVD5 [url=http://***/forum/viewtopic.php?t=4746521]http://***/forum/viewtopic.php?t=4746521[/url]
Автор рипа: domin8
Подробные технические данные
GeneralComplete name : C:\Users\X666\Desktop\Starchaser The Legend of Orin\Starchaser_The_Legend_of_Orin_DVDRip.aviFormat : AVIFormat/Info : Audio Video InterleaveFile size : 746 MiBDuration : 1h 40mnOverall bit rate : 1 041 KbpsMovie name : Starchaser: The Legend of Orin [ripped by domin8]Genre : Child'sWriting application : VirtualDubMod 1.5.10.3 | www.virtualdub-fr.org || (build 2550/release)Original source form/Name : CartoonVideo #0ID : 0Format : MPEG-4 VisualFormat profile : Advanced Simple@L5Format settings, BVOP : YesFormat settings, QPel : NoFormat settings, GMC : No warppointsFormat settings, Matrix : Default (H.263)Codec ID : XVIDCodec ID/Hint : XviDDuration : 1h 40mnBit rate : 904 KbpsWidth : 640 pixelsHeight : 272 pixelsDisplay aspect ratio : 2.35:1Frame rate : 23.976 fpsColor space : YUVChroma subsampling : 4:2:0Bit depth : 8 bitsScan type : ProgressiveBits/(Pixel*Frame) : 0.217Stream size : 648 MiB (87%)Writing library : XviD 73Audio #1ID : 1Format : MPEG AudioFormat version : Version 1Format profile : Layer 3Mode : Joint stereoMode extension : MS StereoCodec ID : 55Codec ID/Hint : MP3Duration : 1h 40mnBit rate mode : ConstantBit rate : 128 KbpsChannel(s) : 2 channelsSampling rate : 48.0 KHzStream size : 91.6 MiB (12%)Alignment : Aligned on interleavesInterleave, duration : 42 ms (1.00 video frame)Interleave, preload duration : 504 msWriting library : LAME3.99rEncoding settings : -m j -V 4 -q 0 -lowpass 17 -b 128
Скриншоты
Скачать

Скачать торрент! Звездный патруль: Легенда об Орине / Starchaser: The Legend of Orin (Стивен Хан / Steven Hahn) [1985, мультфильм, фантастика, приключения, DVDRip] AVO

Как скачивать? · Что такое торрент? · Рейтинг и ограничения

Сайт не распространяет и не хранит электронные версии произведений, а лишь предоставляет доступ к создаваемому пользователями каталогу ссылок на торрент-файлы, которые содержат только списки хеш-сумм

[Профиль] [ЛС]
Показать сообщения:    
Ответить на тему

Текущее время: Сегодня 12:18

Часовой пояс: GMT + 4



Вы не можете начинать темы
Вы не можете отвечать на сообщения
Вы не можете редактировать свои сообщения
Вы не можете удалять свои сообщения
Вы не можете голосовать в опросах
Вы не можете прикреплять файлы к сообщениям
Вы не можете скачивать файлы