Перекресток / Chaurahen / Crossroads (Раджшри Оджха / Rajshree Ojha) [2007, Индия, Драма, DVDRip] DVO (Ульпаней Эльром)

Ответить на тему
 
Автор Сообщение

user ®

Стаж: 12 лет

Сообщений: 15092

Пост Пост: #1 от 24-Янв-2016 02:27

[Цитировать]

Перекресток / Chaurahen / Crossroads
Страна: Индия
Жанр: Драма
Год выпуска: 2007
Продолжительность: 01:24:04
Перевод: Профессиональный (двухголосый закадровый) Ульпаней Эльром
Cубтитры: нет
Режиссер: Раджшри Оджха / Rajshree Ojha
В ролях: Зинат Аман, Виктор Банерджи, Кира Чаплин, Рупали Гангули, Соха Али Кхан, Анкур Кханна, Картик Кумар, Шаян Мунши, Арундатхи Наг, Недумуди Вену
Описание: Три щемящих душу истории о людях, живущих в разных городах Индии. Никак не связанные друг с другом, они схожи в своей обыденной безысходности потерь.
Доп. информация: Запись звука с т/к Bollywood HD: oktober.
Синхронизация: Dego 80.
Сэмпл: http://multi-up.com/1085506
Качество видео: DVDRip
Формат видео: AVI
Видео: XviD build 50, 608x352 (1.73:1), 25 fps, 1073 kbps avg
Аудио: MPEG Layer 3, 48 kHz, 2/0 (L,R) ch, 128.00 kbps
MediaInfo
General
Complete name : F:\Perekrestok.2007.DVDRip.avi
Format : AVI
Format/Info : Audio Video Interleave
File size : 728 MiB
Duration : 1h 24mn
Overall bit rate : 1 211 Kbps
Writing application : VirtualDubMod 1.5.10.2 (build 2540/release)
Writing library : VirtualDubMod build 2540/release
Video
ID : 0
Format : MPEG-4 Visual
Format profile : AdvancedSimple@L5
Format settings, BVOP : Yes
Format settings, QPel : No
Format settings, GMC : No warppoints
Format settings, Matrix : Custom
Codec ID : XVID
Codec ID/Hint : XviD
Duration : 1h 24mn
Bit rate : 1 074 Kbps
Width : 608 pixels
Height : 352 pixels
Display aspect ratio : 16/9
Frame rate : 25.000 fps
Resolution : 24 bits
Colorimetry : 4:2:0
Scan type : Progressive
Bits/(Pixel*Frame) : 0.201
Stream size : 646 MiB (89%)
Writing library : XviD 1.2.1 (UTC 2008-12-04)
Audio
ID : 1
Format : MPEG Audio
Format version : Version 1
Format profile : Layer 3
Codec ID : 55
Codec ID/Hint : MP3
Duration : 1h 24mn
Bit rate mode : Constant
Bit rate : 128 Kbps
Channel(s) : 2 channels
Sampling rate : 48.0 KHz
Resolution : 16 bits
Stream size : 77.0 MiB (11%)
Alignment : Aligned on interleaves
Interleave, duration : 40 ms (1.00 video frame)
Interleave, preload duration : 504 ms
Скриншоты
Скачать

Скачать торрент! Перекресток / Chaurahen / Crossroads (Раджшри Оджха / Rajshree Ojha) [2007, Индия, Драма, DVDRip] DVO (Ульпаней Эльром)

Как скачивать? · Что такое торрент? · Рейтинг и ограничения

Сайт не распространяет и не хранит электронные версии произведений, а лишь предоставляет доступ к создаваемому пользователями каталогу ссылок на торрент-файлы, которые содержат только списки хеш-сумм

[Профиль] [ЛС]
Показать сообщения:    
Ответить на тему

Текущее время: Сегодня 12:36

Часовой пояс: GMT + 4



Вы не можете начинать темы
Вы не можете отвечать на сообщения
Вы не можете редактировать свои сообщения
Вы не можете удалять свои сообщения
Вы не можете голосовать в опросах
Вы не можете прикреплять файлы к сообщениям
Вы не можете скачивать файлы