Похождения Чичикова: Манилов (Борис Степанцев) [1974, Кукольная анимация, DVB]

Ответить на тему
 
Автор Сообщение

user ®

Стаж: 7 лет 7 месяцев

Сообщений: 20008

Пост Пост: #1 от 22-Янв-2016 17:54

[Цитировать]

Похождения Чичикова: Манилов
Жанр: Кукольная анимация
Год выпуска: 1974
Продолжительность: 00:09:30
Режиссёр: Борис Степанцев
Описание: По роману Н.В. Гоголя «Мёртвые души».
1. Хитрый Чичиков в гостях у барина Манилова, витающего в облаках, строящего воздушные замки, запустившего своё хозяйство.
Доп. информация:

Трансляция спутникового канала: "Детский мир"
Качество видео: DVB
Формат видео: MPEG-PS
Видео: MPEG2 Video, 704x576, 25 fps, 2700 kbps
Аудио: MPEG Audio, 2 сh, 48 kHz, 192 kbps
Сравнение
[url=http://***/forum/viewtopic.php?t=1012630]http://***/forum/viewtopic.php?t=1012630[/url]
http://screenshotcomparison.com/comparison/157595
MediaInfo
General
Complete name : D:\Похождения Чичикова. Манилов. (1974)_DVB by SLuMeP.mpg
Format : MPEG-PS
File size : 200 MiB
Duration : 9mn 30s
Overall bit rate mode : Variable
Overall bit rate : 2 937 Kbps
Video
ID : 224 (0xE0)
Format : MPEG Video
Format version : Version 2
Format profile : Main@Main
Format settings, BVOP : Yes
Format settings, Matrix : Custom
Format settings, GOP : Variable
Format settings, picture st : Frame
Duration : 9mn 30s
Bit rate mode : Variable
Bit rate : 2 687 Kbps
Maximum bit rate : 5 000 Kbps
Width : 704 pixels
Height : 576 pixels
Display aspect ratio : 4:3
Frame rate : 25.000 fps
Standard : PAL
Color space : YUV
Chroma subsampling : 4:2:0
Bit depth : 8 bits
Scan type : Interlaced
Scan order : Top Field First
Compression mode : Lossy
Bits/(Pixel*Frame) : 0.265
Time code of first frame : 00:00:00:00
Time code source : Group of pictures header
GOP, Open/Closed : Open
Stream size : 183 MiB (91%)
GOP, Open/Closed of first f : Closed
Audio
ID : 192 (0xC0)
Format : MPEG Audio
Format version : Version 1
Format profile : Layer 2
Duration : 9mn 30s
Bit rate mode : Constant
Bit rate : 192 Kbps
Channel(s) : 2 channels
Sampling rate : 48.0 KHz
Compression mode : Lossy
Stream size : 13.0 MiB (7%)
Скриншоты
Скачать

Скачать торрент!

Как скачивать? · Что такое торрент? · Рейтинг и ограничения

Сайт не распространяет и не хранит электронные версии произведений, а лишь предоставляет доступ к создаваемому пользователями каталогу ссылок на торрент-файлы, которые содержат только списки хеш-сумм

[Профиль] [ЛС]
Показать сообщения:    
Ответить на тему

Текущее время: Сегодня 17:28

Часовой пояс: GMT + 4



Вы не можете начинать темы
Вы не можете отвечать на сообщения
Вы не можете редактировать свои сообщения
Вы не можете удалять свои сообщения
Вы не можете голосовать в опросах
Вы не можете прикреплять файлы к сообщениям
Вы не можете скачивать файлы