Проделки Рамзеса / Ramsese vembud / 1-4 серии (Хейки Эрнитс) [1985-1987, рисованный мультфильм, DVB]

Ответить на тему
 
Автор Сообщение

user ®

Стаж: 7 лет 7 месяцев

Сообщений: 20008

Пост Пост: #1 от 22-Янв-2016 17:54

[Цитировать]

Проделки Рамзеса - 4 серии
Год выпуска: 1985-1987
Страна: СCCР
Производство: "Таллинфильм" по заказу Гостелерадио СССР
Жанр: кукольный мультфильм
Продолжительность: 00:09:29 + 00:08:37 + 00:08:19 + 00:09:38
Русские субтитры: нет
Режиссёр: Хейки Эрнитс
Описание: Мультфильм о приключениях охотничьего пса и его непутевого хозяина ...
Доп. информация: мультфильм снят по рисункам эстонского карикатуриста Э. Вальтера.

Релиз группы:
Трансляция спутникового канала:

Качество видео: DVB
Формат видео: MPEG-PS
Видео: MPEG2 Video, 720x576 (4:3), 25 fps, 3200 kbps
Аудио: MPEG Audiо, 2 сh, 48 kHz, 192 kbps
Сравнение
[url=http://***/forum/viewtopic.php?t=3663917]http://***/forum/viewtopic.php?t=3663917[/url]
http://screenshotcomparison.com/comparison/157604
[url=http://***/forum/viewtopic.php?t=650082]http://***/forum/viewtopic.php?t=650082[/url]
http://screenshotcomparison.com/comparison/157610
MediaInfo
General
Complete name : D:\Проделки Рамзеса\01с. Проделки Рамзеса. (1985)_DVB by SLuMeP.mpg
Format : MPEG-PS
File size : 241 MiB
Duration : 9mn 28s
Overall bit rate mode : Variable
Overall bit rate : 3 552 Kbps
Video
ID : 224 (0xE0)
Format : MPEG Video
Format version : Version 2
Format profile : Main@Main
Format settings, BVOP : Yes
Format settings, Matrix : Custom
Format settings, GOP : Variable
Format settings, picture st : Frame
Duration : 9mn 28s
Bit rate mode : Variable
Bit rate : 3 289 Kbps
Maximum bit rate : 5 000 Kbps
Width : 720 pixels
Height : 576 pixels
Display aspect ratio : 4:3
Frame rate : 25.000 fps
Standard : PAL
Color space : YUV
Chroma subsampling : 4:2:0
Bit depth : 8 bits
Scan type : Interlaced
Scan order : Top Field First
Compression mode : Lossy
Bits/(Pixel*Frame) : 0.317
Time code of first frame : 00:00:00:00
Time code source : Group of pictures header
GOP, Open/Closed : Open
Stream size : 223 MiB (93%)
GOP, Open/Closed of first f : Closed
Audio
ID : 192 (0xC0)
Format : MPEG Audio
Format version : Version 1
Format profile : Layer 2
Duration : 9mn 28s
Bit rate mode : Constant
Bit rate : 192 Kbps
Channel(s) : 2 channels
Sampling rate : 48.0 KHz
Compression mode : Lossy
Stream size : 13.0 MiB (5%)
Скриншоты
Скачать

Скачать торрент!

Как скачивать? · Что такое торрент? · Рейтинг и ограничения

Сайт не распространяет и не хранит электронные версии произведений, а лишь предоставляет доступ к создаваемому пользователями каталогу ссылок на торрент-файлы, которые содержат только списки хеш-сумм

[Профиль] [ЛС]
Показать сообщения:    
Ответить на тему

Текущее время: Сегодня 08:29

Часовой пояс: GMT + 4



Вы не можете начинать темы
Вы не можете отвечать на сообщения
Вы не можете редактировать свои сообщения
Вы не можете удалять свои сообщения
Вы не можете голосовать в опросах
Вы не можете прикреплять файлы к сообщениям
Вы не можете скачивать файлы