Золотая невеста (Роман Барабаш) [2014, комедия, HDTVRip]

Ответить на тему
 
Автор Сообщение

user ®

Стаж: 7 лет 7 месяцев

Сообщений: 20008

Пост Пост: #1 от 22-Янв-2016 11:42

[Цитировать]

Золотая невеста
Жанр: комедия
Год выпуска: 2014
Продолжительность: 01:29:42
Режиссер: Роман Барабаш
В ролях: Глафира Тарханова, Александр Ратников, Олег Масленников-Войтов, Анастасия Пронина, Юлия Гришина, Ирина Домнинская, Виталий Альшанский, Вадим Александров, Алена Проданова
Описание: Деревенские старик со старухой берутся выдать замуж городскую племянницу, засидевшуюся в девках, когда та приезжает погостить на новогодние каникулы. Чтобы привлечь интерес к её неказистой персоне, оборотистая бабка без ведома племяшки распускает слух, будто Надя — вдова-миллионерша, и скоро получит наследство от умершего мужа-бизнесмена.
У каждого из объявившихся женихов свои планы на Надино «наследство». Журналист Долгобродов хочет сделать сенсационный материал о вдове знаменитого миллионера, которая почему-то прячется в деревне. Он пытается на волне этой сенсации получить работу в Москве. Художник Тимофей, выбрав в спутницы жизни богатую вдову, хочет добиться мировой славы. Стареющему ловеласу Кулькову всего-то и нужно от Нади, что денег на починку избы. При этом каждый из кандидатов считает Надю скучной серой мышкой. И только после того, как она влюбляется по-настоящему и преображается, женихи понимают, что проворонили настоящее сокровище. Корыстные помыслы сменяются искренней симпатией, и когда выясняется, что никакого наследства нет и в помине, многие по-прежнему не прочь предложить ей руку и сердце.


Sample
Качество видео: HDTVRip
Формат видео: AVI
Видео: 720x400 (1.80:1), 25 fps, XviD build 50 ~1968 kbps avg, 0.27 bit/pixel
Аудио: 48 kHz, AC3 Dolby Digital, 2/0 (L,R) ch, ~192 kbps

MediaInfo
General
Complete name : K:\Золотая невеста 2014 HDTVRip.avi
Format : AVI
Format/Info : Audio Video Interleave
File size : 1.36 GiB
Duration : 1h 29mn
Overall bit rate : 2 171 Kbps
Writing application : VirtualDubMod 1.5.10.3 | www.virtualdub-fr.org || (build 2550/release)
Writing library : VirtualDubMod build 2550/release
Video
ID : 0
Format : MPEG-4 Visual
Format profile : Advanced Simple@L5
Format settings, BVOP : 2
Format settings, QPel : No
Format settings, GMC : No warppoints
Format settings, Matrix : Default (H.263)
Codec ID : XVID
Codec ID/Hint : XviD
Duration : 1h 29mn
Bit rate : 1 969 Kbps
Width : 720 pixels
Height : 400 pixels
Display aspect ratio : 16:9
Frame rate : 25.000 fps
Color space : YUV
Chroma subsampling : 4:2:0
Bit depth : 8 bits
Scan type : Progressive
Compression mode : Lossy
Bits/(Pixel*Frame) : 0.273
Stream size : 1.23 GiB (91%)
Writing library : XviD 1.2.1 (UTC 2008-12-04)
Audio
ID : 1
Format : AC-3
Format/Info : Audio Coding 3
Mode extension : CM (complete main)
Format settings, Endianness : Big
Codec ID : 2000
Duration : 1h 29mn
Bit rate mode : Constant
Bit rate : 192 Kbps
Channel count : 2 channels
Channel positions : Front: L R
Sampling rate : 48.0 KHz
Bit depth : 16 bits
Compression mode : Lossy
Stream size : 123 MiB (9%)
Alignment : Split accross interleaves
Interleave, duration : 40 ms (1.00 video frame)
Interleave, preload duration : 500 ms
Скриншот c названием фильма Скриншоты
Скачать

Скачать торрент!

Как скачивать? · Что такое торрент? · Рейтинг и ограничения

Сайт не распространяет и не хранит электронные версии произведений, а лишь предоставляет доступ к создаваемому пользователями каталогу ссылок на торрент-файлы, которые содержат только списки хеш-сумм

[Профиль] [ЛС]
Показать сообщения:    
Ответить на тему

Текущее время: Сегодня 00:04

Часовой пояс: GMT + 4



Вы не можете начинать темы
Вы не можете отвечать на сообщения
Вы не можете редактировать свои сообщения
Вы не можете удалять свои сообщения
Вы не можете голосовать в опросах
Вы не можете прикреплять файлы к сообщениям
Вы не можете скачивать файлы