Госпожа Америка / Mistress America (Ноа Баумбак / Noah Baumbach) [2015, США, Бразилия, комедия, BDRip 720p] MVO (iTunes) + Sub Rus, Eng + Original Eng

Ответить на тему
 
Автор Сообщение

user ®

Стаж: 7 лет 7 месяцев

Сообщений: 20008

Пост Пост: #1 от 22-Янв-2016 02:27

[Цитировать]

Госпожа Америка / Mistress America
Страна: США, Бразилия
Студия: Fox Searchlight Pictures, RT Features
Жанр: комедия
Год выпуска: 2015
Продолжительность: 01:24:18
Перевод: Профессиональный (многоголосый закадровый) iTunes
Cубтитры: Rus, Eng
Оригинальная аудиодорожка: английский
Режиссер: Ноа Баумбак / Noah Baumbach
В ролях: Грета Гервиг, Лола Кёрк, Хезер Линд, Синди Чунг, Жасмин Сепас Джонс, Мэттью Шир, Кэтрин Эрбе, Майкл Чернус, Нат Болдуин, Джульетт Бретт, Андреа Чен, Шена Даудесвелл
Описание: Трейси - одинокая студентка нью-йоркского колледжа. Ее жизнь скоро изменится благодаря будущей сводной сестре Брук, любящей приключения и втягивающей Трейси в сумасшедшие эскапады.

Тип релиза: BDRip 720p
Контейнер: MKV
Видео: MPEG-4 AVC, 7078 Кбит/с, 1280x694, 23,976 fps
Аудио: Rus, AC3, 384 kb/s (6 ch), 48 kHz
Аудио 2: Eng, AC3, 640 kb/s (6 ch), 48 kHz
Формат субтитров: softsub (SRT)
MediaInfo
Format : Matroska
Format version : Version 4 / Version 2
File size : 4.87 GiB
Duration : 1h 24mn
Overall bit rate : 8 266 Kbps
Movie name : Госпожа Америка. (Tonik)
Encoded date : UTC 2016-01-19 04:10:35
Writing application : mkvmerge v7.1.0 ('Good Love') 64bit built on Jul 27 2014 13:06:55
Writing library : libebml v1.3.0 + libmatroska v1.4.1
_STATISTICS_WRITING_APP : mkvmerge v7.1.0 ('Good Love') 64bit built on Jul 27 2014 13:06:55
_STATISTICS_WRITING_DATE_UTC : 2016-01-19 04:10:35
_STATISTICS_TAGS : BPS DURATION NUMBER_OF_FRAMES NUMBER_OF_BYTES
DURATION : 01:24:18.080000000
NUMBER_OF_FRAMES : 158065
NUMBER_OF_BYTES : 242787840
Video
ID : 1
Format : AVC
Format/Info : Advanced Video Codec
Format profile : High@L4.1
Format settings, CABAC : Yes
Format settings, ReFrames : 9 frames
Codec ID : V_MPEG4/ISO/AVC
Duration : 1h 24mn
Bit rate : 7 078 Kbps
Width : 1 280 pixels
Height : 694 pixels
Display aspect ratio : 1.85:1
Frame rate mode : Constant
Frame rate : 23.976 fps
Color space : YUV
Chroma subsampling : 4:2:0
Bit depth : 8 bits
Scan type : Progressive
Bits/(Pixel*Frame) : 0.332
Stream size : 4.17 GiB (86%)
Writing library : x264 core 148 r2638+53 bb29004 t_mod_Custom [8-bit@all X86_64]
Encoding settings : cabac=1 / ref=9 / deblock=1:-3:-3 / analyse=0x3:0x133 / me=umh / subme=11 / psy=1 / fade_compensate=0.00 / psy_rd=1.05:0.00 / mixed_ref=1 / me_range=48 / chroma_me=1 / trellis=2 / 8x8dct=1 / cqm=0 / deadzone=21,11 / fast_pskip=1 / chroma_qp_offset=-2 / threads=8 / lookahead_threads=1 / sliced_threads=0 / nr=0 / decimate=1 / interlaced=0 / bluray_compat=0 / constrained_intra=0 / fgo=0 / bframes=9 / b_pyramid=2 / b_adapt=2 / b_bias=0 / direct=3 / weightb=1 / open_gop=0 / weightp=2 / keyint=250 / keyint_min=23 / scenecut=40 / intra_refresh=0 / rc_lookahead=150 / rc=crf / mbtree=0 / crf=16.2000 / qcomp=0.60 / qpmin=0:0:0 / qpmax=69:69:69 / qpstep=4 / vbv_maxrate=50000 / vbv_bufsize=62500 / crf_max=0.0 / nal_hrd=none / filler=0 / ip_ratio=1.40 / pb_ratio=1.20 / aq=3:0.75 / aq-sensitivity=10.00 / aq-factor=1.00:1.00:1.00 / aq2=0 / aq3=0
Language : English
Default : Yes
Forced : No
_STATISTICS_WRITING_APP : mkvmerge v7.1.0 ('Good Love') 64bit built on Jul 27 2014 13:06:55
_STATISTICS_WRITING_DATE_UTC : 2016-01-19 04:10:35
_STATISTICS_TAGS : BPS DURATION NUMBER_OF_FRAMES NUMBER_OF_BYTES
DURATION : 01:24:18.095000000
NUMBER_OF_FRAMES : 121273
NUMBER_OF_BYTES : 4577008326
Audio #1
ID : 2
Format : AC-3
Format/Info : Audio Coding 3
Mode extension : CM (complete main)
Format settings, Endianness : Big
Codec ID : A_AC3
Duration : 1h 24mn
Bit rate mode : Constant
Bit rate : 384 Kbps
Channel(s) : 6 channels
Channel positions : Front: L C R, Side: L R, LFE
Sampling rate : 48.0 KHz
Bit depth : 16 bits
Compression mode : Lossy
Stream size : 232 MiB (5%)
Title : iTunes
Language : Russian
Default : Yes
Forced : No
Audio #2
ID : 3
Format : AC-3
Format/Info : Audio Coding 3
Mode extension : CM (complete main)
Format settings, Endianness : Big
Codec ID : A_AC3
Duration : 1h 24mn
Bit rate mode : Constant
Bit rate : 640 Kbps
Channel(s) : 6 channels
Channel positions : Front: L C R, Side: L R, LFE
Sampling rate : 48.0 KHz
Bit depth : 16 bits
Compression mode : Lossy
Stream size : 386 MiB (8%)
Language : English
Default : No
Forced : No
Text #1
ID : 4
Format : UTF-8
Codec ID : S_TEXT/UTF8
Codec ID/Info : UTF-8 Plain Text
Language : Russian
Default : No
Forced : No
Text #2
ID : 5
Format : UTF-8
Codec ID : S_TEXT/UTF8
Codec ID/Info : UTF-8 Plain Text
Language : English
Default : No
Forced : No
Text #3
ID : 6
Format : UTF-8
Codec ID : S_TEXT/UTF8
Codec ID/Info : UTF-8 Plain Text
Title : SDH
Language : English
Default : No
Forced : No
Menu
00:00:00.000 : en:Chapter 1
00:05:12.020 : en:Chapter 2
00:09:03.168 : en:Chapter 3
00:12:21.574 : en:Chapter 4
00:15:26.592 : en:Chapter 5
00:18:10.089 : en:Chapter 6
00:20:56.297 : en:Chapter 7
00:24:38.143 : en:Chapter 8
00:27:30.065 : en:Chapter 9
00:30:37.210 : en:Chapter 10
00:32:51.303 : en:Chapter 11
00:36:23.681 : en:Chapter 12
00:39:24.862 : en:Chapter 13
00:42:04.147 : en:Chapter 14
00:45:20.635 : en:Chapter 15
00:48:18.646 : en:Chapter 16
00:51:11.485 : en:Chapter 17
00:54:32.186 : en:Chapter 18
00:58:43.603 : en:Chapter 19
01:03:48.908 : en:Chapter 20
01:06:45.168 : en:Chapter 21
01:11:08.556 : en:Chapter 22
01:15:55.551 : en:Chapter 23
01:22:06.964 : en:Chapter 24
Скриншоты
Скачать

Скачать торрент!

Как скачивать? · Что такое торрент? · Рейтинг и ограничения

Сайт не распространяет и не хранит электронные версии произведений, а лишь предоставляет доступ к создаваемому пользователями каталогу ссылок на торрент-файлы, которые содержат только списки хеш-сумм

[Профиль] [ЛС]
Показать сообщения:    
Ответить на тему

Текущее время: Сегодня 23:21

Часовой пояс: GMT + 4



Вы не можете начинать темы
Вы не можете отвечать на сообщения
Вы не можете редактировать свои сообщения
Вы не можете удалять свои сообщения
Вы не можете голосовать в опросах
Вы не можете прикреплять файлы к сообщениям
Вы не можете скачивать файлы