Всё хорошо / All Is Well (Умеш Шукла / Umesh Shukla) [2015, Индия, Драма, мелодрама, комедия, DVDRip] DVO (DeadSno&Den904) + Sub Rus (на песни)

Ответить на тему
 
Автор Сообщение

user ®

Стаж: 12 лет

Сообщений: 15092

Пост Пост: #1 от 21-Янв-2016 10:57

[Цитировать]

Всё хорошо / All Is Well Страна: Индия
Жанр: Драма, мелодрама, комедия
Год выпуска: 2015
Продолжительность: 01:59:00-Перевод: Любительский (двухголосый закадровый) DeadSno&Den904
Cубтитры: Русские (на песни)-Режиссер: Умеш Шукла / Umesh Shukla-В ролях: Риши Капур, Абхишек Баччан, Асин, Суприя Патхак, Мохаммед Зишан Айюб, Сумит Виас, Кайзаад Котваль, Херри Тангди, Сонакши Сингха-Описание: Индер Бхалла - талантливый певец и композитор. Для него существует лишь одна страсть - и это музыка. Он живёт за границей, успешно сочиняет музыку, и ведёт тихую и спокойную жизнь. Правда, не спешит связывать себя священными узами Гименея, ибо не верит в брак. А причиной тому явилась его семья. Индер с детства вырос на руганях и перепалках своих родителей. Неокрепшая детская психика каждый день становилась свидетелем постоянных споров отца и матери, которые никак не могли поделить построенную отцом Индера пекарню. Из года в год, в Индере накапливалась ненависть к семье, как снежный ком. Он зарёкся, что никогда не женится, даже несмотря на Нимми, девушку, влюблённую в него со студенчества, и пытающуюся всеми силами затащить любимого к свадебному алтарю. Однажды, раздаётся телефонный звонок, и адвокат просит Индера приехать на Родину, чтобы тот подписал документы на продажу пекарни, и забрал свою долю. Индер едет в Индию, чтобы окончательно покончить со своим прошлым, где волей-неволей ему придётся увидеться со своими родителями, о которых он не справлялся целых 10 лет...-Сэмпл: http://multi-up.com/1085142-Качество видео: DVDRip
Формат видео: AVI
Видео: 720x304 (2.35:1), 23.976 fps, XviD build 50, 424 Kbps
Аудио: 48 kHz, AC3 Dolby Digital, 3/2 (L,C,R,l,r) + LFE ch, 320 Kbps-Озвучка: DeadSno&Den904
Перевод и редакция: ❖ Honey&Haseena ❖- -MediaInfo
General
Complete name : AllisWell.2015.Kolobok.HoneyHaseena.avi
Format : AVI
Format/Info : Audio Video Interleave
Format profile : OpenDML
File size : 1.46 GiB
Duration : 1h 59mn
Overall bit rate : 1 756 Kbps
Writing application : Lavf54.63.104
Video #0
ID : 0
Format : xvid
Codec ID : xvid
Duration : 1h 59mn
Bit rate : 1 424 Kbps
Width : 720 pixels
Height : 304 pixels
Display aspect ratio : 2.35:1
Frame rate : 23.976 fps
Bits/(Pixel*Frame) : 0.271
Stream size : 1.18 GiB (81%)
Audio #1
ID : 1
Format : AC-3
Format/Info : Audio Coding 3
Codec ID : 00001000-0000-0020-8000-00AA00389B71
Duration : 1h 59mn
Bit rate : 320 Kbps
Channel(s) : 6 channels
Channel positions : Front: L C R, Back: L R, LFE
Sampling rate : 48.0 KHz
Bit depth : 16 bits
Compression mode : Lossy
Stream size : 273 MiB (18%)
Interleave, duration : 32 ms (0.77 video frame)
Скриншот c названием фильма Скриншоты
Скачать

Скачать торрент! Всё хорошо / All Is Well (Умеш Шукла / Umesh Shukla) [2015, Индия, Драма, мелодрама, комедия, DVDRip] DVO (DeadSno&Den904) + Sub Rus (на песни)

Как скачивать? · Что такое торрент? · Рейтинг и ограничения

Сайт не распространяет и не хранит электронные версии произведений, а лишь предоставляет доступ к создаваемому пользователями каталогу ссылок на торрент-файлы, которые содержат только списки хеш-сумм

[Профиль] [ЛС]
Показать сообщения:    
Ответить на тему

Текущее время: Сегодня 15:37

Часовой пояс: GMT + 4



Вы не можете начинать темы
Вы не можете отвечать на сообщения
Вы не можете редактировать свои сообщения
Вы не можете удалять свои сообщения
Вы не можете голосовать в опросах
Вы не можете прикреплять файлы к сообщениям
Вы не можете скачивать файлы