Стальной рассвет / Steel Dawn (Лэнс Хул / Lance Hool) [1987, США, фантастика, боевик, приключения, BDRip 720p] MVO + Sub Eng, Rus + Original Eng

Ответить на тему
 
Автор Сообщение

user ®

Стаж: 7 лет 7 месяцев

Сообщений: 20008

Пост Пост: #1 от 21-Янв-2016 04:48

[Цитировать]

Стальной рассвет / Steel Dawn
-Страна: США
Жанр: фантастика, боевик, приключения
Год выпуска: 1987
Продолжительность: 01:40:28-Перевод: Профессиональный (многоголосый, закадровый)
Cубтитры: русские, английские
Оригинальная аудиодорожка: английский-Режиссер: Лэнс Хул / Lance Hool-В ролях: Патрик Суэйзи, Лиза Ниеми, Энтони Зербе, Брайон Джеймс, Джон Фуджиока, Арнольд Вослоу-Описание:
Опустошительные войны и глобальные катаклизмы навсегда изменили облик Земли. В песках бескрайних пустынь, покрывших планету, жизнь жалких горсток людей целиком зависит от редких источников пресной воды. В этом суровом постапокалиптическом мире обитатели городка Меридиан живут в вечном страхе перед бандой безжалостного Дамнила, властвующего на их землях. Он намерен отнять драгоценный колодец у одинокой красавицы Кэйши и ее юного сына. Но планы головорезов внезапно нарушает появление загадочного Кочевника с острым мечом Миротворца. Молчаливый незнакомец с блестящими навыками воина и холодным сердцем героя встает на защиту городка и отважной женщины, поклявшись избавить их от злодеев. Но Дамнил не намерен сдаваться. Он поручает своим наемникам избавиться от чужака любым способом…-Сэмпл: Скачать-Тип релиза: BDRip 720p
Контейнер: MKV
Видео: 1280x720 (16:9); 6000 Kbps; 23.976 fps; 0.272 bpp
Аудио 1: Russian; AC3; 48.0 KHz; 6ch; 384 Kbps
Аудио 2: English; AC3; 48.0 KHz; 6ch; 384 Kbps
MediaInfo
Format : Matroska
Format version : Version 4 / Version 2
File size : 4.75 GiB
Duration : 1h 40mn
Overall bit rate : 6 762 Kbps
Encoded date : UTC 2016-01-18 13:38:06
Writing application : mkvmerge v8.3.0 ('Over the Horizon') 64bit
Writing library : libebml v1.3.1 + libmatroska v1.4.2
Attachements : poster.jpg
DURATION : 01:40:28.352000000
NUMBER_OF_FRAMES : 188386
NUMBER_OF_BYTES : 289360896
_STATISTICS_WRITING_APP : mkvmerge v8.3.0 ('Over the Horizon') 64bit
_STATISTICS_WRITING_DATE_UT : 2016-01-18 13:38:06
_STATISTICS_TAGS : BPS DURATION NUMBER_OF_FRAMES NUMBER_OF_BYTES
Video
ID : 1
Format : AVC
Format/Info : Advanced Video Codec
Format profile : High@L4.1
Format settings, CABAC : Yes
Format settings, ReFrames : 9 frames
Codec ID : V_MPEG4/ISO/AVC
Duration : 1h 40mn
Bit rate : 6 000 Kbps
Width : 1 280 pixels
Height : 720 pixels
Display aspect ratio : 16:9
Frame rate mode : Constant
Frame rate : 23.976 fps
Color space : YUV
Chroma subsampling : 4:2:0
Bit depth : 8 bits
Scan type : Progressive
Bits/(Pixel*Frame) : 0.272
Stream size : 4.11 GiB (87%)
Writing library : x264 core 146 r2538 121396c
Encoding settings : cabac=1 / ref=9 / deblock=1:-3:-3 / analyse=0x3:0x133 / me=umh / subme=11 / psy=1 / psy_rd=1.00:0.50 / mixed_ref=1 / me_range=32 / chroma_me=1 / trellis=2 / 8x8dct=1 / cqm=0 / deadzone=21,11 / fast_pskip=0 / chroma_qp_offset=-4 / threads=12 / lookahead_threads=3 / sliced_threads=0 / nr=0 / decimate=0 / interlaced=0 / bluray_compat=0 / constrained_intra=0 / bframes=16 / b_pyramid=2 / b_adapt=2 / b_bias=0 / direct=3 / weightb=1 / open_gop=0 / weightp=2 / keyint=240 / keyint_min=23 / scenecut=40 / intra_refresh=0 / rc_lookahead=60 / rc=2pass / mbtree=0 / bitrate=6000 / ratetol=1.0 / qcomp=0.65 / qpmin=0 / qpmax=69 / qpstep=4 / cplxblur=20.0 / qblur=0.5 / vbv_maxrate=62500 / vbv_bufsize=78125 / nal_hrd=none / filler=0 / ip_ratio=1.40 / pb_ratio=1.30 / aq=1:1.00
Default : Yes
Forced : No
Audio #1
ID : 2
Format : AC-3
Format/Info : Audio Coding 3
Mode extension : CM (complete main)
Format settings, Endianness : Big
Codec ID : A_AC3
Duration : 1h 40mn
Bit rate mode : Constant
Bit rate : 384 Kbps
Channel(s) : 6 channels
Channel positions : Front: L C R, Side: L R, LFE
Sampling rate : 48.0 KHz
Compression mode : Lossy
Stream size : 276 MiB (6%)
Language : Russian
Default : Yes
Forced : No
Audio #2
ID : 3
Format : AC-3
Format/Info : Audio Coding 3
Mode extension : CM (complete main)
Format settings, Endianness : Big
Codec ID : A_AC3
Duration : 1h 40mn
Bit rate mode : Constant
Bit rate : 384 Kbps
Channel(s) : 6 channels
Channel positions : Front: L C R, Side: L R, LFE
Sampling rate : 48.0 KHz
Compression mode : Lossy
Stream size : 276 MiB (6%)
Language : English
Default : No
Forced : No
Text #1
ID : 4
Format : UTF-8
Codec ID : S_TEXT/UTF8
Codec ID/Info : UTF-8 Plain Text
Language : Russian
Default : No
Forced : No
Text #2
ID : 5
Format : UTF-8
Codec ID : S_TEXT/UTF8
Codec ID/Info : UTF-8 Plain Text
Language : English
Default : No
Forced : No
Menu
00:00:00.000 : en:00:00:00.000
00:08:35.181 : en:00:08:35.181
00:15:56.873 : en:00:15:56.873
00:25:30.696 : en:00:25:30.696
00:35:50.190 : en:00:35:50.190
00:47:04.488 : en:00:47:04.488
00:54:56.794 : en:00:54:56.794
01:04:10.805 : en:01:04:10.805
01:13:07.341 : en:01:13:07.341
01:18:32.791 : en:01:18:32.791
01:22:42.541 : en:01:22:42.541
01:33:10.835 : en:01:33:10.835
Скриншоты
Скачать

Скачать торрент!

Как скачивать? · Что такое торрент? · Рейтинг и ограничения

Сайт не распространяет и не хранит электронные версии произведений, а лишь предоставляет доступ к создаваемому пользователями каталогу ссылок на торрент-файлы, которые содержат только списки хеш-сумм

[Профиль] [ЛС]
Показать сообщения:    
Ответить на тему

Текущее время: Сегодня 08:05

Часовой пояс: GMT + 4



Вы не можете начинать темы
Вы не можете отвечать на сообщения
Вы не можете редактировать свои сообщения
Вы не можете удалять свои сообщения
Вы не можете голосовать в опросах
Вы не можете прикреплять файлы к сообщениям
Вы не можете скачивать файлы