Легенда / Legend (Брайан Хелгеленд / Brian Helgeland) [2015, Великобритания, Франция, криминал, триллер, драма, WEB-DL 720p] [Локализованный видеоряд] Dub (iTunes)

Ответить на тему
 
Автор Сообщение

user ®

Стаж: 7 лет 7 месяцев

Сообщений: 20008

Пост Пост: #1 от 19-Янв-2016 03:21

[Цитировать]

Легенда : Legend«Преступление – как профессия. Взлет и падение легендарных близнецов Крэй» Год выпуска: 2015
Страна: Великобритания, Франция
Жанр: криминал, триллер, драма
Продолжительность: 02:11:09
Перевод: Профессиональный (Дублированный) - iTunes
Субтитры: нет
Оригинальная аудиодорожка: нет-Режиссёр: Брайан Хелгеленд : Brian Helgeland-В главных ролях: Том Харди, Эмили Браунинг, Дэвид Тьюлис, Даффи, Кристофер Экклстон, Чазз Пальминтери, Колин Морган, Джошуа Хилл, Пол Андерсон, Тара Фитцджеральд
Роли дублировали: Илья Исаев, Вероника Саркисова, Андрей Градов, Алексей Войтюк, Валерий Сторожик-Описание: Фильм расскажет историю близнецов Реджи и Ронни Крэй, культовых фигур преступного мира Великобритании 1960-х. Братья возглавляли самую влиятельную бандитскую группировку Ист-Энда. В их послужном списке: вооруженные грабежи, рэкет, поджоги, покушения, убийства и собственный ночной клуб, куда доезжали даже голливудские знаменитости. Среди их жертв — криминальные авторитеты Джек МакВитти и Джордж Корнелл.- -Качество: WEB-DL 720p
Формат: MKV
Видео кодек: AVC
Аудио кодек: AC3
Видео: 1280x536 , 24 fps, ~3887 kbps avg, 0.236 bit/pixel
Аудио: 48 kHz, AC3 Dolby Digital, 3/2 (L,C,R,l,r) + LFE ch, ~384 kbps avg
навигация по главам: 22 главы (не именных)
скриншоты MediaInfo
Общее
Уникальный идентификатор : 184010043985653676529602086976135914737 (0x8A6F0B9DE47A92FB818D6F60099C64F1)
Полное имя : D:\Legend.2015.WEB-DL 720p.mkv
Формат : Matroska
Версия формата : Version 4 / Version 2
Размер файла : 3,99 Гбайт
Продолжительность : 2 ч. 11 м.
Общий поток : 4358 Кбит/сек
Дата кодирования : UTC 2016-01-15 19:11:59
Программа кодирования : mkvmerge v8.3.0 ('Over the Horizon') 64bit
Библиотека кодирования : libebml v1.3.1 + libmatroska v1.4.2
DURATION : 02:11:09.696000000
NUMBER_OF_FRAMES : 245928
NUMBER_OF_BYTES : 377745408
_STATISTICS_WRITING_APP : mkvmerge v8.3.0 ('Over the Horizon') 64bit
_STATISTICS_WRITING_DATE_UTC : 2016-01-15 19:11:59
_STATISTICS_TAGS : BPS DURATION NUMBER_OF_FRAMES NUMBER_OF_BYTES
Видео
Идентификатор : 1
Формат : AVC
Формат/Информация : Advanced Video Codec
Профиль формата : Main@L3.1
Параметр CABAC формата : Нет
Параметр ReFrames формата : 2 кадра
Идентификатор кодека : V_MPEG4/ISO/AVC
Продолжительность : 2 ч. 11 м.
Битрейт : 3887 Кбит/сек
Ширина : 1280 пикселей
Высота : 536 пикселей
Соотношение сторон : 2,40:1
Режим частоты кадров : Постоянный
Частота кадров : 24,000 кадра/сек
Цветовое пространство : YUV
Субдискретизация насыщенности : 4:2:0
Битовая глубина : 8 бит
Тип развёртки : Прогрессивная
Бит/(Пиксели*Кадры) : 0.236
Размер потока : 3,56 Гбайт (89%)
Язык : English
Default : Да
Forced : Нет
Цветовой диапазон : Limited
Основные цвета : BT.709
Характеристики трансфера : BT.709
Коэффициенты матрицы : BT.709
Аудио
Идентификатор : 2
Формат : AC-3
Формат/Информация : Audio Coding 3
Расширение режима : CM (complete main)
Параметр Endianness формата : Big
Идентификатор кодека : A_AC3
Продолжительность : 2 ч. 11 м.
Вид битрейта : Постоянный
Битрейт : 384 Кбит/сек
Каналы : 6 каналов
Расположение каналов : Front: L C R, Side: L R, LFE
Частота : 48,0 КГц
Метод сжатия : С потерями
Размер потока : 360 Мбайт (9%)
Язык : Russian
Default : Да
Forced : Нет
Меню
00:00:00.000 : en:Глава 1
00:05:40.000 : en:Глава 2
00:11:08.000 : en:Глава 3
00:17:25.000 : en:Глава 4
00:23:41.000 : en:Глава 5
00:29:14.000 : en:Глава 6
00:34:32.000 : en:Глава 7
00:40:30.000 : en:Глава 8
00:46:06.000 : en:Глава 9
00:51:12.000 : en:Глава 10
00:57:58.000 : en:Глава 11
01:03:43.000 : en:Глава 12
01:09:51.000 : en:Глава 13
01:15:57.000 : en:Глава 14
01:21:32.000 : en:Глава 15
01:26:50.000 : en:Глава 16
01:32:26.000 : en:Глава 17
01:37:40.000 : en:Глава 18
01:43:10.000 : en:Глава 19
01:48:47.000 : en:Глава 20
01:54:16.000 : en:Глава 21
01:59:21.000 : en:Глава 22
Скачать

Скачать торрент!

Как скачивать? · Что такое торрент? · Рейтинг и ограничения

Сайт не распространяет и не хранит электронные версии произведений, а лишь предоставляет доступ к создаваемому пользователями каталогу ссылок на торрент-файлы, которые содержат только списки хеш-сумм

[Профиль] [ЛС]
Показать сообщения:    
Ответить на тему

Текущее время: Сегодня 16:06

Часовой пояс: GMT + 4



Вы не можете начинать темы
Вы не можете отвечать на сообщения
Вы не можете редактировать свои сообщения
Вы не можете удалять свои сообщения
Вы не можете голосовать в опросах
Вы не можете прикреплять файлы к сообщениям
Вы не можете скачивать файлы