Рождественский переполох / Christmas Bounty (Джил Джангер / Gil Junger) [2013, США, боевик, комедия, HDTV1080i] MVO (SDI Media)

Ответить на тему
 
Автор Сообщение

user ®

Стаж: 7 лет 7 месяцев

Сообщений: 20008

Пост Пост: #1 от 17-Янв-2016 23:30

[Цитировать]

Рождественский переполох / Christmas Bounty- Страна: США
Студия: ABC Family, WWE Studios
Жанр: боевик, комедия
Год выпуска: 2013
Продолжительность: 01:09:58-Перевод: Профессиональный (многоголосый закадровый) - SDI Media
Cубтитры: нет
Оригинальная аудиодорожка: нет-Режиссер: Джил Джангер / Gil Junger
В ролях: Франсия Райза, Майк Мизанин, Уилл Гринберг, Майкл Хэйнус, Эйприл Телек, Скотт Пэйти, Алекс Паунович, Чилан Симмонс, Кит Даллас, Малкольм Стюарт, Карен Крупер- | Релиз: -Описание: Бывшая охотница за головами становится учительницей младших классов, пытаясь жить нормальной жизнью и держа в секрете свое прошлое. Однако, отправившись домой на Рождество, она вынуждена снова приняться за дело, чтобы спасти семейный бизнес.-Семпл: http://sendfile.su/1194061-Тип релиза: HDTV 1080i
Контейнер: TS
Видео: 1920x1080 (16:9), 25.000 fps, AVC, ~7940 kbps, 0.153 bits/pixel
Аудио: Russian, 48.0 KHz, AC3, 2 ch, 192 kbps
MediaInfo
GeneralID : 1 (0x1)Complete name : Christmas Bounty 2013 TV1000MegahitHD MVO SDI-Media.tsFormat : MPEG-TSFile size : 4.18 GiBDuration : 1h 9mnOverall bit rate mode : VariableOverall bit rate : 8 557 Kbps
VideoID : 303 (0x12F)Menu ID : 1 (0x1)Format : AVCFormat/Info : Advanced Video CodecFormat profile : Main@L4Format settings, CABAC : YesFormat settings, ReFrames : 4 framesCodec ID : 27Duration : 1h 9mnBit rate : 7 940 KbpsWidth : 1 920 pixelsHeight : 1 080 pixelsDisplay aspect ratio : 16:9Frame rate : 25.000 fpsStandard : ComponentColor space : YUVChroma subsampling : 4:2:0Bit depth : 8 bitsScan type : InterlacedScan type, store method : Separated fieldsScan order : Top Field FirstBits/(Pixel*Frame) : 0.153Stream size : 3.88 GiB (93%)Color range : LimitedColor primaries : BT.709Transfer characteristics : BT.709Matrix coefficients : BT.709
AudioID : 423 (0x1A7)Menu ID : 1 (0x1)Format : AC-3Format/Info : Audio Coding 3Mode extension : CM (complete main)Format settings, Endianness : BigCodec ID : 6Duration : 1h 9mnBit rate mode : ConstantBit rate : 192 KbpsChannel(s) : 2 channelsChannel positions : Front: L RSampling rate : 48.0 KHzFrame rate : 31.250 fps (1536 spf)Compression mode : LossyStream size : 96.1 MiB (2%)Language : Russian
Скриншоты
Скачать

Скачать торрент!

Как скачивать? · Что такое торрент? · Рейтинг и ограничения

Сайт не распространяет и не хранит электронные версии произведений, а лишь предоставляет доступ к создаваемому пользователями каталогу ссылок на торрент-файлы, которые содержат только списки хеш-сумм

[Профиль] [ЛС]
Показать сообщения:    
Ответить на тему

Текущее время: Сегодня 18:35

Часовой пояс: GMT + 4



Вы не можете начинать темы
Вы не можете отвечать на сообщения
Вы не можете редактировать свои сообщения
Вы не можете удалять свои сообщения
Вы не можете голосовать в опросах
Вы не можете прикреплять файлы к сообщениям
Вы не можете скачивать файлы