Дочь (Александр Касаткин, Наталья Назарова) [2012, драма, детектив, WEB-DLRip]

Ответить на тему
 
Автор Сообщение

user ®

Стаж: 7 лет 7 месяцев

Сообщений: 20008

Пост Пост: #1 от 15-Янв-2016 18:09

[Цитировать]

Дочь
Жанр: драма, детектив
Год выпуска: 2012
Продолжительность: 01:45:55

Режиссёр: Александр Касаткин, Наталья Назарова
В ролях: Мария Смольникова, Олег Ткачёв, Игорь Мазепа, Владимир Мишуков, Яна Осипова, Мария Звонарева, Кирилл Назаров, Анастасия Имамова, Евгений Ткачук, Алена Кузнецова
Описание: Инна живет со своим папой и маленьким братом в небольшом провинциальном городе. Ее жизнь меняется, когда новая девочка - Маша приезжает в школу, в которой учится Инна. Между ними завязывается дружба. Но Маша становится жертвой серийного маньяка, который орудует в городке, убивая девочек 13-15 лет. Приехав на панихиду в церковь, Инна встречает сына священника - Илью, чья сестра тоже была убита.

Качество видео: [url=http://***/forum/viewtopic.php?t=4595015]WEB-DLRip[/url]
Формат видео: AVI
Видео: 720x384 (1.88:1), 25 fps, XviD build 73 ~1575 kbps avg, 0.23 bit/pixel
Аудио: 48 kHz, AC3 Dolby Digital, 3/2 (L,C,R,l,r) + LFE ch, ~384 kbps


Сравнение
[url=http://***/forum/viewtopic.php?t=4572266]http://***/forum/viewtopic.php?t=4572266[/url]
http://screenshotcomparison.com/comparison/158203/picture:4
MediaInfo
Общее
Полное имя : H:\Дочь.2012.web-dlrip_[1.46]_[teko].avi
Формат : AVI
Формат/Информация : Audio Video Interleave
Размер файла : 1,46 Гбайт
Продолжительность : 1 ч. 45 м.
Общий поток : 1969 Кбит/сек
Программа кодирования : VirtualDubMod 1.5.10.3 | www.virtualdub-fr.org || (build 2550/release)
Библиотека кодирования : VirtualDubMod build 2550/release
Видео
Идентификатор : 0
Формат : MPEG-4 Visual
Профиль формата : Advanced Simple@L5
Параметр BVOP формата : 1
Параметр QPel формата : Нет
Параметр GMC формата : Без точки перехода
Параметр матрицы формата : Выборочная
Идентификатор кодека : XVID
Идентификатор кодека/Подсказка : XviD
Продолжительность : 1 ч. 45 м.
Битрейт : 1576 Кбит/сек
Ширина : 720 пикселей
Высота : 384 пикселя
Соотношение сторон : 1,85:1
Частота кадров : 25,000 кадров/сек
Цветовое пространство : YUV
Субдискретизация насыщенности : 4:2:0
Битовая глубина : 8 бит
Тип развёртки : Прогрессивная
Метод сжатия : С потерями
Бит/(Пиксели*Кадры) : 0.228
Размер потока : 1,17 Гбайт (80%)
Библиотека кодирования : XviD 73
Аудио
Идентификатор : 1
Формат : AC-3
Формат/Информация : Audio Coding 3
Расширение режима : CM (complete main)
Параметр Endianness формата : Big
Идентификатор кодека : 2000
Продолжительность : 1 ч. 45 м.
Вид битрейта : Постоянный
Битрейт : 384 Кбит/сек
Каналы : 6 каналов
Расположение каналов : Front: L C R, Side: L R, LFE
Частота : 48,0 КГц
Битовая глубина : 16 бит
Метод сжатия : С потерями
Размер потока : 291 Мбайт (19%)
Выравнивание : Разделение по промежуткам
Продолжительность промежутка : 40 мс. (1,00 видеокадр)
Время предзагрузки промежутка : 500 мс.
Скриншоты Релиз группы:
[url=http://***/forum/viewtopic.php?t=1677970] [/url]
--
Скачать

Скачать торрент!

Как скачивать? · Что такое торрент? · Рейтинг и ограничения

Сайт не распространяет и не хранит электронные версии произведений, а лишь предоставляет доступ к создаваемому пользователями каталогу ссылок на торрент-файлы, которые содержат только списки хеш-сумм

[Профиль] [ЛС]
Показать сообщения:    
Ответить на тему

Текущее время: Сегодня 11:56

Часовой пояс: GMT + 4



Вы не можете начинать темы
Вы не можете отвечать на сообщения
Вы не можете редактировать свои сообщения
Вы не можете удалять свои сообщения
Вы не можете голосовать в опросах
Вы не можете прикреплять файлы к сообщениям
Вы не можете скачивать файлы