Эксперимент (Ефим Гамбург) [1988, CCCР, Рисованный мультфильм, WEBRip]

Ответить на тему
 
Автор Сообщение

user ®

Стаж: 7 лет 7 месяцев

Сообщений: 20008

Пост Пост: #1 от 15-Янв-2016 02:42

[Цитировать]

Эксперимент
Страна: CCCР
Жанр: Рисованный мультфильм
Продолжительность: 00:07:43
Год выпуска: 1988
Русские субтитры: нет
Режиссёр: Ефим Гамбург
Роли озвучивали: Ефим Шифрин
Описание: Большой город − это всегда пробки, толкотня, духота в общественном транспорте, проблемы с осадками, негативное влияние которое на скорость передвижения его жителей сказывается намного ощутимее, нежели в маленьком поселке. Героями нашего мультфильма станут сразу все, кто проживает в некоем мегаполисе, в один день отказавшиеся использовать какие-либо механические средства передвижения. Все они решили, что крылья доставят их на рабочее место, к родственникам или на природу быстрее, нежели транспорт. В этот момент высшее руководство города принимает решение предоставить всем его жителем разрешение на осуществление воздушных полетов, призванных упростить жизнь города, однако, крылья выросли не у всех, и власти снова были озадачены решением теперь уже этой проблемы, поскольку число людей, оставшихся без возможности покорять воздух, было немало…. (для взрослых)
Доп. информация: «Союзмультфильм»
Авторы сценария: О. Ольгин, М. Кривич
Художник-постановщик: Николай Кошкин
Композитор: П. Овсянников
Кинооператор: Александр Чеховский
Художники-аниматоры: Ю.Мещеряков, А.Букин, А.Панов, В.Вышегородцев
Звукооператор: Владимир Кутузов
Релиз группы:
Качество: WEBRip
Формат: AVI
Видео: 640x480 (1.33:1), 25 fps, XviD MPEG-4 ~2097 kbps avg, 0.27 bit/pixel
Аудио: 48 kHz, AC3 Dolby Digital, 2/0 (L,R) ch, ~192.00 kbps avg
Субтитры: нет
Подробные технические данные
Format : AVIFormat/Info : Audio Video InterleaveFile size : 127 MiBDuration : 7mn 43sOverall bit rate : 2 300 KbpsWriting application : VirtualDubModRus 1.5.10.2 (build 2542/release)Copyright : Rutracker.orgComment : WEBRip by dvdss
VideoID : 0Format : MPEG-4 VisualFormat profile : Advanced Simple@L5Format settings, BVOP : 2Format settings, QPel : NoFormat settings, GMC : No warppointsFormat settings, Matrix : CustomCodec ID : XVIDCodec ID/Hint : XviDDuration : 7mn 43sBit rate : 2 098 KbpsWidth : 640 pixelsHeight : 480 pixelsDisplay aspect ratio : 5:4Original display aspect ratio : 4:3Frame rate : 25.000 fpsColor space : YUVChroma subsampling : 4:2:0Bit depth : 8 bitsScan type : ProgressiveCompression mode : LossyBits/(Pixel*Frame) : 0.273Stream size : 116 MiB (91%)Writing library : XviD 65
AudioID : 1Format : AC-3Format/Info : Audio Coding 3Mode extension : CM (complete main)Format settings, Endianness : BigCodec ID : 2000Duration : 7mn 43sBit rate mode : ConstantBit rate : 192 KbpsChannel(s) : 2 channelsChannel positions : Front: L RSampling rate : 48.0 KHzBit depth : 16 bitsCompression mode : LossyStream size : 10.6 MiB (8%)Alignment : Aligned on interleavesInterleave, duration : 40 ms (1.00 video frame)Interleave, preload duration : 512 ms
сравнение с TVRip
Сравнение с [url=http://***/forum/viewtopic.php?t=2802918]http://***/forum/viewtopic.php?t=2802918[/url]
Тут -- http://screenshotcomparison.com/comparison/158143/picture:0
Скриншоты
Скачать

Скачать торрент!

Как скачивать? · Что такое торрент? · Рейтинг и ограничения

Сайт не распространяет и не хранит электронные версии произведений, а лишь предоставляет доступ к создаваемому пользователями каталогу ссылок на торрент-файлы, которые содержат только списки хеш-сумм

[Профиль] [ЛС]
Показать сообщения:    
Ответить на тему

Текущее время: Сегодня 22:35

Часовой пояс: GMT + 4



Вы не можете начинать темы
Вы не можете отвечать на сообщения
Вы не можете редактировать свои сообщения
Вы не можете удалять свои сообщения
Вы не можете голосовать в опросах
Вы не можете прикреплять файлы к сообщениям
Вы не можете скачивать файлы