Супербоец кунг-фу / The Super Kung Fu Fighter (Сун Юнг / Sun Yung) [1978, Тайвань, Боевые искусства, VHSRip] AVO (Сергей Кузнецов)

Ответить на тему
 
Автор Сообщение

user ®

Стаж: 13 лет

Сообщений: 15071

Пост Пост: #1 от 15-Янв-2016 02:42

[Цитировать]

Супербоец кунг-фу / The Super Kung Fu Fighter / 天下无敌
Страна: Тайвань
Жанр: Боевые искусства
Год выпуска: 1978
Продолжительность: 01:25:26
Перевод: Авторский (одноголосый закадровый) Сергей Кузнецов
Cубтитры: нет
Оригинальная аудиодорожка: нет
Режиссер: Сун Юнг / Sun Yung
В ролях: Манг Фэй, Картер Вонг, Бетти Пей Tи, Брюс Ченг Монг, Тонг Гa-Куэн, Кин Вонг, Кан Чон-Aх, Сэм Чой-Лин
Описание: Дядя императора посылает своего племянника под видом старика-посланника к врагам империи. Молодой император влюбляется в дочь одного из бунтарей, в конечном итоге убивает его и женится его дочери. Но, убийство раскрывается и брат девушки, желая наказать императора, встаёт на путь возмездия.
Сэмпл: http://multi-up.com/1084175
Качество видео: VHSRip
Формат видео: AVI
Видео: 624x464 (1.34:1), 23.976 fps, XviD build 64 ~2233 kbps avg, 0.32 bit/pixel
Аудио: 48 kHz, AC3 Dolby Digital, 2/0 (L,R) ch, ~192.00 kbps avg
MediaInfo
General
Complete name : D:\The Super Kung Fu Fighter.avi
Format : AVI
Format/Info : Audio Video Interleave
File size : 1.45 GiB
Duration : 1h 25mn
Overall bit rate : 2 430 Kbps
Writing application : VirtualDubMod 1.5.10.3 (build 2550/release)
Writing library : VirtualDubMod build 2550/release
Video
ID : 0
Format : MPEG-4 Visual
Format profile : Advanced Simple@L5
Format settings, BVOP : 2
Format settings, QPel : No
Format settings, GMC : No warppoints
Format settings, Matrix : Custom
Codec ID : XVID
Codec ID/Hint : XviD
Duration : 1h 25mn
Bit rate : 2 233 Kbps
Width : 624 pixels
Height : 464 pixels
Display aspect ratio : 4:3
Frame rate : 23.976 (23976/1000) fps
Color space : YUV
Chroma subsampling : 4:2:0
Bit depth : 8 bits
Scan type : Progressive
Compression mode : Lossy
Bits/(Pixel*Frame) : 0.322
Stream size : 1.33 GiB (92%)
Writing library : XviD 64
Audio
ID : 1
Format : AC-3
Format/Info : Audio Coding 3
Mode extension : CM (complete main)
Format settings, Endianness : Big
Codec ID : 2000
Duration : 1h 25mn
Bit rate mode : Constant
Bit rate : 192 Kbps
Channel(s) : 2 channels
Channel positions : Front: L R
Sampling rate : 48.0 KHz
Frame rate : 31.250 fps (1536 spf)
Bit depth : 16 bits
Compression mode : Lossy
Stream size : 117 MiB (8%)
Alignment : Aligned on interleaves
Interleave, duration : 160 ms (3.84 video frames)
Interleave, preload duration : 640 ms
Скриншот c названием фильма Скриншоты
Скачать

Скачать торрент! Супербоец кунг-фу / The Super Kung Fu Fighter (Сун Юнг / Sun Yung) [1978, Тайвань, Боевые искусства, VHSRip] AVO (Сергей Кузнецов)

Как скачивать? · Что такое торрент? · Рейтинг и ограничения

Сайт не распространяет и не хранит электронные версии произведений, а лишь предоставляет доступ к создаваемому пользователями каталогу ссылок на торрент-файлы, которые содержат только списки хеш-сумм

[Профиль] [ЛС]
Показать сообщения:    
Ответить на тему

Текущее время: Сегодня 20:48

Часовой пояс: GMT + 4



Вы не можете начинать темы
Вы не можете отвечать на сообщения
Вы не можете редактировать свои сообщения
Вы не можете удалять свои сообщения
Вы не можете голосовать в опросах
Вы не можете прикреплять файлы к сообщениям
Вы не можете скачивать файлы