Азартное привидение / The gambling ghost / Hong fu qi tian (Клифтон Ко / Clifton Ko) [1991, Гонконг, комедия, DVDRip-AVC] MVO + Sub Rus

Ответить на тему
 
Автор Сообщение

user ®

Стаж: 13 лет

Сообщений: 15071

Пост Пост: #1 от 15-Янв-2016 02:42

[Цитировать]

Азартное привидение / The gambling ghost / Hong fu qi tian
Страна: Гонконг
Жанр: комедия
Год выпуска: 1991
Продолжительность: 01:32:59
Перевод: Профессиональный (многоголосый закадровый)
Cубтитры: русские
Оригинальная аудиодорожка: Английский, Китайский
Режиссер: Клифтон Ко / Clifton Ko
В ролях: Саммо Кам-Бо Хунг, Нина Ли Чи, Ман Хой, Джеймс Вонг, Йип Винг Чо, Норман ЭнДжи, Билли Чоу, Роберт Сэмюэлс, Джеймс Тьен
Описание: Приведение деда обещает внуку помощь выиграть миллион, но в обмен Само должен найти и убить человека, отправившего деда на тот свет много лет назад. Чтобы облегчить внуку задачу, дед посвящает его в тайны рукопашного боя.
Сэмпл: Скачать
Субтитры: Скачать
Исходник: [url=http://***/forum/viewtopic.php?t=782584]DVD R5[/url]
Качество видео: DVDRip-AVC
Формат видео: MKV
Видео: AVC, 688x512 => 751x512, 4:3, 25.000 fps, 2263 kbps
Аудио 1: AC3, 48.0 KHz, 448 kbps, 6ch - MVO
Аудио 2: AC3, 48.0 KHz, 448 kbps, 6ch - English
Аудио 3: AC3, 48.0 KHz, 192 kbps, 2ch - Chinese
Формат субтитров: softsub (SRT)
Присутствует переключение по главам, как на исходнике
MediaInfo
General
Unique ID : 179758401206164511442823354617734426775 (0x873C35718B9411C490C961C81244F097)
Complete name : L:\DVD\Азартное привидение (Hong fu qi tian)(многоголосый DD 5.1)\Азартное привидение (The gambling ghost)(Hong fu qi tian)[1991, комедия, DVDRip-AVC].mkv
Format : Matroska
Format version : Version 2
File size : 2.18 GiB
Duration : 1h 32mn
Overall bit rate : 3 353 Kbps
Encoded date : UTC 2016-01-13 21:43:51
Writing application : mkvmerge v5.7.0 ('The Whirlwind') built on Jul 8 2012 20:08:51
Writing library : libebml v1.2.3 + libmatroska v1.3.0
Video
ID : 1
Format : AVC
Format/Info : Advanced Video Codec
Format profile : High@L4.1
Format settings, CABAC : Yes
Format settings, ReFrames : 16 frames
Codec ID : V_MPEG4/ISO/AVC
Duration : 1h 32mn
Bit rate : 2 263 Kbps
Width : 688 pixels
Height : 512 pixels
Display aspect ratio : 3:2
Original display aspect ratio : 3:2
Frame rate mode : Constant
Frame rate : 25.000 fps
Color space : YUV
Chroma subsampling : 4:2:0
Bit depth : 8 bits
Scan type : Progressive
Bits/(Pixel*Frame) : 0.257
Stream size : 1.43 GiB (66%)
Writing library : x264 core 148 r2638 7599210
Encoding settings : cabac=1 / ref=16 / deblock=1:-1:-1 / analyse=0x3:0x133 / me=umh / subme=10 / psy=1 / psy_rd=1.00:0.00 / mixed_ref=1 / me_range=24 / chroma_me=1 / trellis=2 / 8x8dct=1 / cqm=0 / deadzone=21,11 / fast_pskip=0 / chroma_qp_offset=-2 / threads=12 / lookahead_threads=3 / sliced_threads=0 / nr=0 / decimate=1 / interlaced=0 / bluray_compat=0 / constrained_intra=0 / bframes=15 / b_pyramid=2 / b_adapt=2 / b_bias=0 / direct=3 / weightb=1 / open_gop=0 / weightp=2 / keyint=250 / keyint_min=25 / scenecut=40 / intra_refresh=0 / rc_lookahead=40 / rc=2pass / mbtree=1 / bitrate=2263 / ratetol=1.0 / qcomp=0.60 / qpmin=0 / qpmax=61 / qpstep=4 / cplxblur=20.0 / qblur=0.5 / vbv_maxrate=50000 / vbv_bufsize=50000 / nal_hrd=none / filler=0 / ip_ratio=1.40 / aq=1:1.00
Language : Chinese
Default : Yes
Forced : No
Color primaries : BT.709
Transfer characteristics : BT.709
Matrix coefficients : BT.709
Audio #1
ID : 2
Format : AC-3
Format/Info : Audio Coding 3
Mode extension : CM (complete main)
Format settings, Endianness : Big
Codec ID : A_AC3
Duration : 1h 32mn
Bit rate mode : Constant
Bit rate : 448 Kbps
Channel count : 6 channels
Channel positions : Front: L C R, Side: L R, LFE
Sampling rate : 48.0 KHz
Bit depth : 16 bits
Compression mode : Lossy
Stream size : 298 MiB (13%)
Title : AC3 6ch 448kbps |MVO|
Language : Russian
Default : Yes
Forced : No
Audio #2
ID : 3
Format : AC-3
Format/Info : Audio Coding 3
Mode extension : CM (complete main)
Format settings, Endianness : Big
Codec ID : A_AC3
Duration : 1h 32mn
Bit rate mode : Constant
Bit rate : 448 Kbps
Channel count : 6 channels
Channel positions : Front: L C R, Side: L R, LFE
Sampling rate : 48.0 KHz
Bit depth : 16 bits
Compression mode : Lossy
Stream size : 298 MiB (13%)
Title : AC3 6ch 448kbps
Language : English
Default : No
Forced : No
Audio #3
ID : 4
Format : AC-3
Format/Info : Audio Coding 3
Mode extension : CM (complete main)
Format settings, Endianness : Big
Codec ID : A_AC3
Duration : 1h 32mn
Bit rate mode : Constant
Bit rate : 192 Kbps
Channel count : 2 channels
Channel positions : Front: L R
Sampling rate : 48.0 KHz
Bit depth : 16 bits
Compression mode : Lossy
Stream size : 128 MiB (6%)
Title : AC3 2ch 192kbps
Language : Chinese
Default : No
Forced : No
Text
ID : 5
Format : UTF-8
Codec ID : S_TEXT/UTF8
Codec ID/Info : UTF-8 Plain Text
Title : full
Language : Russian
Default : No
Forced : No
Menu
00:00:00.000 : en:Chapter 1
00:04:52.440 : en:Chapter 2
00:11:19.440 : en:Chapter 3
00:16:22.440 : en:Chapter 4
00:21:40.320 : en:Chapter 5
00:28:25.680 : en:Chapter 6
00:33:00.480 : en:Chapter 7
00:37:57.480 : en:Chapter 8
00:43:13.560 : en:Chapter 9
00:50:01.560 : en:Chapter 10
00:56:01.560 : en:Chapter 11
01:01:43.680 : en:Chapter 12
01:07:53.640 : en:Chapter 13
01:10:42.360 : en:Chapter 14
01:18:30.360 : en:Chapter 15
01:21:37.920 : en:Chapter 16
01:25:35.280 : en:Chapter 17
01:30:03.600 : en:Chapter 18
01:32:58.800 : en:Chapter 19
Скриншот c названием фильма Скриншоты
Скачать

Скачать торрент! Азартное привидение / The gambling ghost / Hong fu qi tian (Клифтон Ко / Clifton Ko) [1991, Гонконг, комедия, DVDRip-AVC] MVO + Sub Rus

Как скачивать? · Что такое торрент? · Рейтинг и ограничения

Сайт не распространяет и не хранит электронные версии произведений, а лишь предоставляет доступ к создаваемому пользователями каталогу ссылок на торрент-файлы, которые содержат только списки хеш-сумм

[Профиль] [ЛС]
Показать сообщения:    
Ответить на тему

Текущее время: Сегодня 17:36

Часовой пояс: GMT + 4



Вы не можете начинать темы
Вы не можете отвечать на сообщения
Вы не можете редактировать свои сообщения
Вы не можете удалять свои сообщения
Вы не можете голосовать в опросах
Вы не можете прикреплять файлы к сообщениям
Вы не можете скачивать файлы