Последний охотник на ведьм / The Last Witch Hunter (Брек Эйснер / Breck Eisner) [2015, США, Китай, Канада, фэнтези, боевик, приключения, WEB-DL 720p] Dub (iTunes) + Original Eng + Sub Eng

Ответить на тему
 
Автор Сообщение

user ®

Стаж: 7 лет 7 месяцев

Сообщений: 20008

Пост Пост: #1 от 14-Янв-2016 23:36

[Цитировать]

Последний охотник на ведьм / The Last Witch Hunter«Вечно жить. Вечно убивать»________________________________________________________________________________________Страна: США, Китай, Канада
Студия: Summit Entertainment, Lionsgate Company
Жанр: фэнтези, боевик, приключения
Год выпуска: 2015
Продолжительность: 01:46:26
Перевод: Профессиональный (дублированный) | iTunes Russia
Оригинальная аудиодорожка: английский
Cубтитры: английские
Режиссер: Брек Эйснер / Breck Eisner
В ролях: Вин Дизель, Роуз Лесли, Элайджа Вуд, Оулавюр Дарри Оулафссон, Рина Оуэн, Юли Энгельбрехт, Майкл Кейн, Джозеф Гилган, Исаак Де Банколе, Майкл Халсли, Слоун Кумбс, Лотте Вербеек, Доун Оливери, Инбар Лави, Армани Джексон, Эйми Карреро, Бекс Тейлор-Клаус, Дэвид Уэйлен, Джэк Эрди, Туссэн Рафаэль Абессоло
Описание: Современный мир скрывает множество секретов, но самым удивительным из них является то, что ведьмы до сих пор живут среди нас. Это злобные сверхъестественные существа, чья цель — наслать на мир смертоносную чуму. Армии охотников на ведьм сражались с ними на протяжении многих веков.
В наши дни остался всего лишь один охотник на ведьм, Колдер, которому однажды удалось убить всемогущую королеву ведьм. Но Колдер еще не знает, что королева воскресла и жаждет отомстить своему убийце…________________________________________________________________________________________
Тип релиза: WEB-DL 720p
Контейнер: MKV
Видео: 1280x720 at 24.000 fps (True24p), MPEG-4 AVC, ~4000 kbps avg
Аудио 1: Russian: 48 kHz, AC3, 3/2 (L,C,R,l,r) + LFE ch, ~384.00 kbps avg |Дубляж, iTunes Russia|
Аудио 2: English: 48 kHz, AAC, 2/0 (L,R) ch, ~221.00 kbps avg
Cубтитры: english
MediaInfo
General
Unique ID : 181556353138405149296434405932084682297 (0x88967B515DBFC7A9B4714A97E9FADE39)
Complete name : D:\The.Last.Witch.Hunter.2015.720p.WEB-DL.Rus.Eng.mkv
Format : Matroska
Format version : Version 4 / Version 2
File size : 3.43 GiB
Duration : 1h 46mn
Overall bit rate : 4 609 Kbps
Movie name : Последний охотник на ведьм / The Last Witch Hunter (2015)
Encoded date : UTC 2016-01-13 05:05:33
Writing application : mkvmerge v8.3.0 ('Over the Horizon') 64bit
Writing library : libebml v1.3.1 + libmatroska v1.4.2
Video
ID : 1
Format : AVC
Format/Info : Advanced Video Codec
Format profile : High@L3.1
Format settings, CABAC : No
Format settings, ReFrames : 2 frames
Codec ID : V_MPEG4/ISO/AVC
Duration : 1h 46mn
Bit rate : 4 001 Kbps
Width : 1 280 pixels
Height : 720 pixels
Display aspect ratio : 16:9
Frame rate mode : Constant
Frame rate : 24.000 fps
Color space : YUV
Chroma subsampling : 4:2:0
Bit depth : 8 bits
Scan type : Progressive
Bits/(Pixel*Frame) : 0.181
Stream size : 2.97 GiB (87%)
Title : Последний охотник на ведьм / The Last Witch Hunter (2015) WEB-DL 720p
Language : English
Default : Yes
Forced : No
Color range : Limited
Color primaries : BT.709
Transfer characteristics : BT.709
Matrix coefficients : BT.709
Audio #1
ID : 2
Format : AC-3
Format/Info : Audio Coding 3
Mode extension : CM (complete main)
Format settings, Endianness : Big
Codec ID : A_AC3
Duration : 1h 46mn
Bit rate mode : Constant
Bit rate : 384 Kbps
Channel(s) : 6 channels
Channel positions : Front: L C R, Side: L R, LFE
Sampling rate : 48.0 KHz
Frame rate : 31.250 fps (1536 spf)
Compression mode : Lossy
Stream size : 292 MiB (8%)
Title : Dub, iTunes
Language : Russian
Default : Yes
Forced : No
Audio #2
ID : 3
Format : AAC
Format/Info : Advanced Audio Codec
Format profile : LC
Codec ID : A_AAC
Duration : 1h 46mn
Bit rate : 221 Kbps
Channel(s) : 2 channels
Channel positions : Front: L R
Sampling rate : 48.0 KHz
Frame rate : 46.875 fps (1024 spf)
Compression mode : Lossy
Stream size : 169 MiB (5%)
Language : English
Default : No
Forced : No
Text
ID : 4
Format : UTF-8
Codec ID : S_TEXT/UTF8
Codec ID/Info : UTF-8 Plain Text
Duration : 1h 35mn
Bit rate : 39 bps
Count of elements : 1053
Stream size : 27.8 KiB (0%)
Language : English
Default : No
Forced : No
Menu
00:00:00.000 : en:1
00:05:21.000 : en:2
00:12:06.000 : en:3
00:18:03.000 : en:4
00:25:15.000 : en:5
00:30:58.000 : en:6
00:36:21.000 : en:7
00:42:57.000 : en:8
00:49:17.000 : en:9
00:54:59.000 : en:10
01:00:28.000 : en:11
01:05:48.000 : en:12
01:12:07.000 : en:13
01:17:47.000 : en:14
01:23:42.000 : en:15
01:29:42.000 : en:16
01:35:48.000 : en:17
Скриншоты Знаете ли вы, что...
• Саундтреком к фильму является кавер на песню группы The Rolling Stones - Paint it Black в исполнении певицы Сиары.
• Сценарий этого фильма был в «Черном списке» лучших неспродюсированных сценариев 2010 года.
• Сцена показа мод была снята в Музее естественной истории Карнеги.
• Первоначально планировалось, что режиссером проекта станет Тимур Бекмамбетов.
Скачать

Скачать торрент!

Как скачивать? · Что такое торрент? · Рейтинг и ограничения

Сайт не распространяет и не хранит электронные версии произведений, а лишь предоставляет доступ к создаваемому пользователями каталогу ссылок на торрент-файлы, которые содержат только списки хеш-сумм

[Профиль] [ЛС]
Показать сообщения:    
Ответить на тему

Текущее время: Сегодня 04:17

Часовой пояс: GMT + 4



Вы не можете начинать темы
Вы не можете отвечать на сообщения
Вы не можете редактировать свои сообщения
Вы не можете удалять свои сообщения
Вы не можете голосовать в опросах
Вы не можете прикреплять файлы к сообщениям
Вы не можете скачивать файлы