Романтика Манхеттена / Manhattan Romance (Том О’Брайэн / Tom O\'Brien) [2015, США, драма, мелодрама, комедия, WEB-DL 720p] Original Eng + Sub (Rus, Eng)

Ответить на тему
 
Автор Сообщение

user ®

Стаж: 7 лет 7 месяцев

Сообщений: 20008

Пост Пост: #1 от 14-Янв-2016 01:54

[Цитировать]

Романтика Манхеттена / Manhattan Romance- Страна: США
Жанр: драма, мелодрама, комедия
Год выпуска: 2015
Продолжительность: ~01:37:53
Перевод: Субтитры (Netflix)
Cубтитры:
  • Русские
  • Английские
  • Английские (СС)
  • Испанские
  • Португальские
  • Французские
  • Немецкие
  • Голанские
  • Итальянские
  • Финские
  • Шведские
  • Норвежские
    Оригинальная аудиодорожка: английский
    Режиссер: Том О’Брайэн
    В ролях: Джесси Барр, Томми Бурк, Луис Канселми, Маргарет Шенк, Кэйтлин Фицджералд, Зэк Гренье, Габи Хоффманн, Эллен МакЛофлин, Paul Niebanck, Пол О’Брайэ...
    Описание: едактор в документалистике - молодой человек Дэнни стремится к чему-то особому и необычной работе, которая полностью поглотит все сознания. Его поиски приводят, в конце концов, на улицы Манхеттена со свойственной этому округу романтикой.
    Впервые Дэнни взглянул на родные кварталы в которых жил, тротуары по которым ходил и понял, что та жизнь, которая кипит в Манхеттене даст неограниченное количество нужного материала - просто нужно общаться с обычными людьми, жителями жителями этого прекрасного, романтического острова, как одной из частей нью-йорского мегаполиса.
    Тип релиза: WEB-DL 720p Семпл
    Контейнер: MKV
    Видео: AVC (H.264) | 1280x688p (1,85:1) | 23.976fps | ~4003Kbps | ~0.190bits/pix
    Аудио #1: AC3 | 48 KHz | 5.1 (Front: L C R Side: L R) + LFE | ~384 Kbps [ENG]
    Аудио #1: HE-AAC | 48KHz | 2.0 (Front: L R) | 96Kbps [ENG] - Audio Description
    Формат субтитров: softsub (SRT)
    MediaInfo
Общее
Уникальный идентификатор                 : 248390989112574079467489237686948198279 (0xBADE5D48524774828F698B095A13F787)
Полное имя                               : E:\VIDEOS\MOVIES\Manhattan.Romance.2015.720p.WEB-DL.DD5.1.H.264-CasStudio.mkv
Формат                                   : Matroska
Версия формата                           : Version 4 / Version 2
Размер файла                             : 3,07 Гбайт
Продолжительность                        : 1 ч. 37 м.
Общий поток                              : 4487 Кбит/сек
Название фильма                          : Manhattan.Romance.2015.720p.WEB-DL.DD5.1.H.264-CasStudio
Дата кодирования                         : UTC 2016-01-12 14:33:04
Программа кодирования                    : mkvmerge v8.8.0 ('Wind at my back') 64bit
Библиотека кодирования                   : libebml v1.3.3 + libmatroska v1.4.4
Attachements                             : Cover
Видео
Идентификатор                            : 1
Формат                                   : AVC
Формат/Информация                        : Advanced Video Codec
Профиль формата                          : High@L3.1
Параметр CABAC формата                   : Нет
Параметр ReFrames формата                : 2 кадра
Идентификатор кодека                     : V_MPEG4/ISO/AVC
Продолжительность                        : 1 ч. 37 м.
Битрейт                                  : 4003 Кбит/сек
Ширина                                   : 1280 пикселей
Высота                                   : 688 пикселей
Соотношение сторон                       : 1,85:1
Режим частоты кадров                     : Постоянный
Частота кадров                           : 23,976 (23976/1000) кадра/сек
Цветовое пространство                    : YUV
Субдискретизация насыщенности            : 4:2:0
Битовая глубина                          : 8 бит
Тип развёртки                            : Прогрессивная
Бит/(Пиксели*Кадры)                      : 0.190
Размер потока                            : 2,74 Гбайт (89%)
Язык                                     : English
Default                                  : Да
Forced                                   : Нет
Цветовой диапазон                        : Limited
Основные цвета                           : BT.709
Характеристики трансфера                 : BT.709
Коэффициенты матрицы                     : BT.709
Аудио #1
Идентификатор                            : 2
Формат                                   : AC-3
Формат/Информация                        : Audio Coding 3
Расширение режима                        : CM (complete main)
Параметр Endianness формата              : Big
Идентификатор кодека                     : A_AC3
Продолжительность                        : 1 ч. 37 м.
Вид битрейта                             : Постоянный
Битрейт                                  : 384 Кбит/сек
Каналы                                   : 6 каналов
Расположение каналов                     : Front: L C R, Side: L R, LFE
Частота                                  : 48,0 КГц
Частота кадров                           : 31,250 кадров/сек (1536 spf)
Метод сжатия                             : С потерями
Размер потока                            : 269 Мбайт (9%)
Язык                                     : English
Default                                  : Да
Forced                                   : Нет
Аудио #2
Идентификатор                            : 3
Формат                                   : AAC
Формат/Информация                        : Advanced Audio Codec
Профиль формата                          : HE-AAC / LC
Идентификатор кодека                     : A_AAC
Продолжительность                        : 1 ч. 37 м.
Битрейт                                  : 96,0 Кбит/сек
Каналы                                   : 2 канала
Расположение каналов                     : Front: L R
Частота                                  : 48,0 КГц / 24,0 КГц
Частота кадров                           : 23,438 кадра/сек (1024 spf)
Метод сжатия                             : С потерями
Размер потока                            : 66,3 Мбайт (2%)
Заголовок                                : Audio Description
Язык                                     : English
Default                                  : Нет
Forced                                   : Нет
Текст #1
Идентификатор                            : 4
Формат                                   : UTF-8
Идентификатор кодека                     : S_TEXT/UTF8
Идентификатор кодека/Информация          : UTF-8 Plain Text
Продолжительность                        : 1 ч. 31 м.
Битрейт                                  : 135 бит/сек
Count of elements                        : 1732
Размер потока                            : 90,9 Кбайт (0%)
Язык                                     : Russian
Default                                  : Нет
Forced                                   : Нет
Текст #2
Идентификатор                            : 5
Формат                                   : UTF-8
Идентификатор кодека                     : S_TEXT/UTF8
Идентификатор кодека/Информация          : UTF-8 Plain Text
Продолжительность                        : 1 ч. 31 м.
Битрейт                                  : 84 бит/сек
Count of elements                        : 1729
Размер потока                            : 56,9 Кбайт (0%)
Язык                                     : English
Default                                  : Нет
Forced                                   : Нет
Текст #3
Идентификатор                            : 6
Формат                                   : UTF-8
Идентификатор кодека                     : S_TEXT/UTF8
Идентификатор кодека/Информация          : UTF-8 Plain Text
Продолжительность                        : 1 ч. 33 м.
Битрейт                                  : 85 бит/сек
Count of elements                        : 3300
Размер потока                            : 58,6 Кбайт (0%)
Заголовок                                : СС
Язык                                     : English
Default                                  : Нет
Forced                                   : Нет
Текст #4
Идентификатор                            : 7
Формат                                   : UTF-8
Идентификатор кодека                     : S_TEXT/UTF8
Идентификатор кодека/Информация          : UTF-8 Plain Text
Продолжительность                        : 1 ч. 31 м.
Битрейт                                  : 80 бит/сек
Count of elements                        : 1730
Размер потока                            : 53,9 Кбайт (0%)
Язык                                     : Spanish
Default                                  : Нет
Forced                                   : Нет
Текст #5
Идентификатор                            : 8
Формат                                   : UTF-8
Идентификатор кодека                     : S_TEXT/UTF8
Идентификатор кодека/Информация          : UTF-8 Plain Text
Продолжительность                        : 1 ч. 31 м.
Битрейт                                  : 78 бит/сек
Count of elements                        : 1730
Размер потока                            : 52,9 Кбайт (0%)
Заголовок                                : European Spanish
Язык                                     : Spanish
Default                                  : Нет
Forced                                   : Нет
Текст #6
Идентификатор                            : 9
Формат                                   : UTF-8
Идентификатор кодека                     : S_TEXT/UTF8
Идентификатор кодека/Информация          : UTF-8 Plain Text
Продолжительность                        : 1 ч. 31 м.
Битрейт                                  : 74 бит/сек
Count of elements                        : 1730
Размер потока                            : 50,3 Кбайт (0%)
Язык                                     : Portuguese
Default                                  : Нет
Forced                                   : Нет
Текст #7
Идентификатор                            : 10
Формат                                   : UTF-8
Идентификатор кодека                     : S_TEXT/UTF8
Идентификатор кодека/Информация          : UTF-8 Plain Text
Продолжительность                        : 1 ч. 31 м.
Битрейт                                  : 77 бит/сек
Count of elements                        : 1725
Размер потока                            : 52,3 Кбайт (0%)
Язык                                     : French
Default                                  : Нет
Forced                                   : Нет
Текст #8
Идентификатор                            : 11
Формат                                   : UTF-8
Идентификатор кодека                     : S_TEXT/UTF8
Идентификатор кодека/Информация          : UTF-8 Plain Text
Продолжительность                        : 1 ч. 31 м.
Битрейт                                  : 85 бит/сек
Count of elements                        : 1730
Размер потока                            : 57,4 Кбайт (0%)
Язык                                     : German
Default                                  : Нет
Forced                                   : Нет
Текст #9
Идентификатор                            : 12
Формат                                   : UTF-8
Идентификатор кодека                     : S_TEXT/UTF8
Идентификатор кодека/Информация          : UTF-8 Plain Text
Продолжительность                        : 1 ч. 31 м.
Битрейт                                  : 69 бит/сек
Count of elements                        : 1727
Размер потока                            : 46,4 Кбайт (0%)
Язык                                     : Dutch
Default                                  : Нет
Forced                                   : Нет
Текст #10
Идентификатор                            : 13
Формат                                   : UTF-8
Идентификатор кодека                     : S_TEXT/UTF8
Идентификатор кодека/Информация          : UTF-8 Plain Text
Продолжительность                        : 1 ч. 31 м.
Битрейт                                  : 80 бит/сек
Count of elements                        : 1730
Размер потока                            : 54,1 Кбайт (0%)
Язык                                     : Italian
Default                                  : Нет
Forced                                   : Нет
Текст #11
Идентификатор                            : 14
Формат                                   : UTF-8
Идентификатор кодека                     : S_TEXT/UTF8
Идентификатор кодека/Информация          : UTF-8 Plain Text
Продолжительность                        : 1 ч. 31 м.
Битрейт                                  : 74 бит/сек
Count of elements                        : 1730
Размер потока                            : 50,1 Кбайт (0%)
Язык                                     : Finnish
Default                                  : Нет
Forced                                   : Нет
Текст #12
Идентификатор                            : 15
Формат                                   : UTF-8
Идентификатор кодека                     : S_TEXT/UTF8
Идентификатор кодека/Информация          : UTF-8 Plain Text
Продолжительность                        : 1 ч. 31 м.
Битрейт                                  : 81 бит/сек
Count of elements                        : 1730
Размер потока                            : 54,5 Кбайт (0%)
Язык                                     : Swedish
Default                                  : Нет
Forced                                   : Нет
Текст #13
Идентификатор                            : 16
Формат                                   : UTF-8
Идентификатор кодека                     : S_TEXT/UTF8
Идентификатор кодека/Информация          : UTF-8 Plain Text
Продолжительность                        : 1 ч. 31 м.
Битрейт                                  : 70 бит/сек
Count of elements                        : 1730
Размер потока                            : 47,1 Кбайт (0%)
Язык                                     : Norwegian
Default                                  : Нет
Forced                                   : Нет
Скриншоты
Скачать

Скачать торрент!

Как скачивать? · Что такое торрент? · Рейтинг и ограничения

Сайт не распространяет и не хранит электронные версии произведений, а лишь предоставляет доступ к создаваемому пользователями каталогу ссылок на торрент-файлы, которые содержат только списки хеш-сумм

[Профиль] [ЛС]
Показать сообщения:    
Ответить на тему

Текущее время: Сегодня 00:17

Часовой пояс: GMT + 4



Вы не можете начинать темы
Вы не можете отвечать на сообщения
Вы не можете редактировать свои сообщения
Вы не можете удалять свои сообщения
Вы не можете голосовать в опросах
Вы не можете прикреплять файлы к сообщениям
Вы не можете скачивать файлы