Морозики-Морозы (Леонид Зарубин) [1986, СССР, Кукольный мультфильм, DVDRip]

Ответить на тему
 
Автор Сообщение

user ®

Стаж: 7 лет 7 месяцев

Сообщений: 20008

Пост Пост: #1 от 13-Янв-2016 22:48

[Цитировать]

Морозики-Морозы
Страна: СССР
Жанр: Кукольный мультфильм
Продолжительность: 00:09:58
Год выпуска: 1986
Русские субтитры: нет
Режиссёр: Леонид Зарубин
Описание: Мультфильм о том, как из маленьких Морозиков вырастают настоящие Деды Морозы. Школа Дедов Морозов.
Доп. информация: «КИЕВНАУЧФИЛЬМ»
сценарист Александр Костинский
художник-постановщик Н. Сапожников
аниматоры Жан Таран, А. Трифонов, Элеонора Лисицкая
оператор Петр Ракитин
директоры Н. Литвиненко, Б. Снитко
композитор Юрий Шевченко
звукооператор Виктор Груздев
редактор Светлана Куценко
куклы и декорации Анатолий Радченко, Я. Горбаченко, Вадим Гахун, В. Яковенко, Игорь Воскобойник, О. Кульчицкий
Релиз группы:
Качество: DVDRip
Формат: AVI
Видео: 704x528 (1.33:1), 25 fps, XviD MPEG-4 ~2102 kbps avg, 0.23 bit/pixel
Аудио: 48 kHz, AC3 Dolby Digital, 1/0 (C) ch, ~96.00 kbps avg
Субтитры: нет
Подробные технические данные
Format : AVIFormat/Info : Audio Video InterleaveFile size : 158 MiBDuration : 9mn 58sOverall bit rate : 2 208 KbpsWriting application : VirtualDubModRus 1.5.10.2 (build 2542/release)Copyright : Rutracker.orgComment : DVDRip by dvdss
VideoID : 0Format : MPEG-4 VisualFormat profile : Advanced Simple@L5Format settings, BVOP : 2Format settings, QPel : NoFormat settings, GMC : No warppointsFormat settings, Matrix : CustomCodec ID : XVIDCodec ID/Hint : XviDDuration : 9mn 58sBit rate : 2 102 KbpsWidth : 704 pixelsHeight : 528 pixelsDisplay aspect ratio : 5:4Original display aspect ratio : 4:3Frame rate : 25.000 fpsColor space : YUVChroma subsampling : 4:2:0Bit depth : 8 bitsScan type : ProgressiveCompression mode : LossyBits/(Pixel*Frame) : 0.226Stream size : 150 MiB (95%)Writing library : XviD 65
AudioID : 1Format : AC-3Format/Info : Audio Coding 3Mode extension : CM (complete main)Format settings, Endianness : BigCodec ID : 2000Duration : 9mn 58sBit rate mode : ConstantBit rate : 96.0 KbpsChannel(s) : 1 channelChannel positions : Front: CSampling rate : 48.0 KHzBit depth : 16 bitsCompression mode : LossyDelay relative to video : 8msStream size : 6.85 MiB (4%)Alignment : Split accross interleavesInterleave, duration : 40 ms (1.00 video frame)Interleave, preload duration : 500 ms
Скриншоты
Скачать

Скачать торрент!

Как скачивать? · Что такое торрент? · Рейтинг и ограничения

Сайт не распространяет и не хранит электронные версии произведений, а лишь предоставляет доступ к создаваемому пользователями каталогу ссылок на торрент-файлы, которые содержат только списки хеш-сумм

[Профиль] [ЛС]
Показать сообщения:    
Ответить на тему

Текущее время: Сегодня 14:36

Часовой пояс: GMT + 4



Вы не можете начинать темы
Вы не можете отвечать на сообщения
Вы не можете редактировать свои сообщения
Вы не можете удалять свои сообщения
Вы не можете голосовать в опросах
Вы не можете прикреплять файлы к сообщениям
Вы не можете скачивать файлы