Могила девушки / Неупокоенная / Неоплаканная могила / The Girl\'s Grave / Sonyeomoodeom (Ин Чун О / In-chun Oh) [2014, Южная Корея, ужасы, триллер, мистика, HDRip] DVO (DeadSno & den904) + DVO (GREEN TEA) + Sub Rus, Eng + original Kor

Ответить на тему
 
Автор Сообщение

user ®

Стаж: 13 лет

Сообщений: 15071

Пост Пост: #1 от 13-Янв-2016 13:30

[Цитировать]

Могила девушки / Неупокоенная / Неоплаканная могила / The Girl's Grave / Sonyeomoodeom
Страна: Южная Корея
Жанр: ужасы, триллер, мистика
Год выпуска: 2014
Продолжительность: 01:30:24
Перевод: Любительский (двухголосый закадровый) - DeadSno & den904 по переводу Skyworker
Перевод: Любительский (двухголосый закадровый) - GREEN TEA (Антон Рубаков и Антонина Лазаревская)
Cубтитры: русские (Azalea), русские (Tomato), английские
Оригинальная аудиодорожка: корейский

Режиссер: Ин Чун О / In-chun Oh
В ролях: Ха Ныл Кан, Со Ын Ким, Чон Тхэ Ким, Хэ Рин Хан, Ду Сик Пак, Чон Ук Квак, Мин Ха Чжу, Да Ён Чжу, А Хён Ли, Юн Хон О
Описание: Ин Cу крайне неохотно возвращается из Сеула в свой родной город, ведь это то место, где началась его (такая нежелательная) способность видеть призраков. Он думал, что в огромном городе сможет затеряться и держаться подальше от призраков, а те, в свою очередь, не смогут найти его, но не тут-то было. Слишком большое внимание к его персоне заставило парня вернуться в родной городок. Он отправляется за советом к своему дяде Сон Илю, также унаследовавшему эту сверхъестественную способность от прадеда, но тот ничем помочь не смог. Способность видеть призраков превратила жизнь Ин Су в ад и в новой школе, где банда хулиганов жестоко терроризирует более слабых подростков. Все, что теперь есть в жизни Ин Су - таинственный призрак красивой девушки, которая постоянно рядом. Между тем, новые одноклассники парня начинают исчезать один за другим...
Качество видео: HDRip [Mourning.Grave.2014.Blu.Ray.1080p.mkv]
Формат видео: AVI
Видео: 720x304 (2.37:1), 24 fps, XviD build 73 ~1911 kbps avg, 0.36 bit/pixel
Аудио: 48 kHz, AC3 Dolby Digital, 3/2 (L,C,R,l,r) + LFE ch, ~384 kbps - DeadSno & den904
отдельными файлами:
Аудио: 48 kHz, AC3 Dolby Digital, 2/0 (L,R) ch, ~192 kbps - GREEN TEA
Аудио: 48 kHz, AC3 Dolby Digital, 3/2 (L,C,R,l,r) + LFE ch, ~384 kbps - оригинал


Сравнение
[url=http://***/forum/viewtopic.php?t=5116005]http://***/forum/viewtopic.php?t=5116005[/url]
http://screenshotcomparison.com/comparison/157872
MediaInfo
Общее
Полное имя : H:\Mourning.Grave.2014.hdrip_[1.46]_[teko]\Mourning.Grave.2014.hdrip_[1.46].avi
Формат : AVI
Формат/Информация : Audio Video Interleave
Размер файла : 1,46 Гбайт
Продолжительность : 1 ч. 30 м.
Общий поток : 2305 Кбит/сек
Программа кодирования : VirtualDubMod 1.5.10.3 | www.virtualdub-fr.org || (build 2550/release)
Библиотека кодирования : VirtualDubMod build 2550/release
Видео
Идентификатор : 0
Формат : MPEG-4 Visual
Профиль формата : Advanced Simple@L5
Параметр BVOP формата : 1
Параметр QPel формата : Нет
Параметр GMC формата : Без точки перехода
Параметр матрицы формата : Выборочная
Идентификатор кодека : XVID
Идентификатор кодека/Подсказка : XviD
Продолжительность : 1 ч. 30 м.
Битрейт : 1912 Кбит/сек
Ширина : 720 пикселей
Высота : 304 пикселя
Соотношение сторон : 2,35:1
Частота кадров : 24,000 кадра/сек
Цветовое пространство : YUV
Субдискретизация насыщенности : 4:2:0
Битовая глубина : 8 бит
Тип развёртки : Прогрессивная
Метод сжатия : С потерями
Бит/(Пиксели*Кадры) : 0.364
Размер потока : 1,21 Гбайт (83%)
Библиотека кодирования : XviD 73
Аудио
Идентификатор : 1
Формат : AC-3
Формат/Информация : Audio Coding 3
Расширение режима : CM (complete main)
Параметр Endianness формата : Big
Идентификатор кодека : 2000
Продолжительность : 1 ч. 30 м.
Вид битрейта : Постоянный
Битрейт : 384 Кбит/сек
Каналы : 6 каналов
Расположение каналов : Front: L C R, Side: L R, LFE
Частота : 48,0 КГц
Битовая глубина : 16 бит
Метод сжатия : С потерями
Размер потока : 248 Мбайт (17%)
Выравнивание : Разделение по промежуткам
Продолжительность промежутка : 42 мс. (1,00 видеокадр)
Время предзагрузки промежутка : 500 мс.
Скриншоты Релиз группы:
[url=http://***/forum/viewtopic.php?t=1677970] [/url]
--
Скачать

Скачать торрент! Могила девушки / Неупокоенная / Неоплаканная могила / The Girl\'s Grave / Sonyeomoodeom (Ин Чун О / In-chun Oh) [2014, Южная Корея, ужасы, триллер, мистика, HDRip] DVO (DeadSno & den904) + DVO (GREEN TEA) + Sub Rus, Eng + original Kor

Как скачивать? · Что такое торрент? · Рейтинг и ограничения

Сайт не распространяет и не хранит электронные версии произведений, а лишь предоставляет доступ к создаваемому пользователями каталогу ссылок на торрент-файлы, которые содержат только списки хеш-сумм

[Профиль] [ЛС]
Показать сообщения:    
Ответить на тему

Текущее время: Сегодня 12:19

Часовой пояс: GMT + 4



Вы не можете начинать темы
Вы не можете отвечать на сообщения
Вы не можете редактировать свои сообщения
Вы не можете удалять свои сообщения
Вы не можете голосовать в опросах
Вы не можете прикреплять файлы к сообщениям
Вы не можете скачивать файлы