Треугольник 2: Господин, его жена и... наш Гангстер возвращается / Saheb Biwi Aur Gangster Returns (Тигманшу Дхулия / Tigmanshu Dhulia) [2013, Индия, Боевик, криминал, драма, DVDRip] Sub Rus

Ответить на тему
 
Автор Сообщение

user ®

Стаж: 12 лет

Сообщений: 15092

Пост Пост: #1 от 13-Янв-2016 10:24

[Цитировать]

Треугольник 2: Господин, его жена и... наш Гангстер возвращается / Saheb Biwi Aur Gangster Returns
Страна: Индия
Жанр: Боевик, криминал, драма
Год выпуска: 2013
Продолжительность: 02:22:32
Перевод: Субтитры jyoti
Cубтитры: русские
Оригинальная аудиодорожка: хинди
Режиссер: Тигманшу Дхулия / Tigmanshu Dhulia
В ролях: Джимми Шергилл, Махи Гилл, Ирфан Кхан, Соха Али Кхан, Парвеш Рана, Дип Радж Рана, Радж Баббар, Раджив Гупта, Ситарам Панчал, Раджеш Кхера, Суджай Шанкарвар, Анджана Сукхани, Мугда Годсе, Сантош Мауриа
Описание: Королевские скандалы и борьба за власть продолжаются. Даже обездвиженный, Адитья Пратап Сингх держит в страхе всю округу, а его жена продолжает опускаться в пучину безнравственности. Королевской семье нужен наследник, но спивающаяся жена в качестве матери никого не устраивает. И тогда господин решает ввести в дом вторую жену – юную Ранджану. Только смирится ли с этим Мадхави? Так ли уж проста сама невеста? И какие козыри в руках нового Гангстера?
Доп. информация:
Перевод, редакция: jyoti (Спасибо!)
Сэмпл: http://multi-up.com/1083903
Качество видео: DVDRip
Формат видео: AVI
Видео: XviD build 63, 720x304 (2.37:1), 23.976 fps, 1058 kbps avg
Аудио: Hindi AC3 Dolby Digital, 48 kHz, 3/2 (L,C,R,l,r) + LFE ch, 384.00 kbps
Формат субтитров: hardsub (неотключаемые)
MediaInfo
General
Complete name : D:\Treugolnik.2.2013.DVDRip.BwTorrents.avi
Format : AVI
Format/Info : Audio Video Interleave
File size : 1.45 GiB
Duration : 2h 22mn
Overall bit rate : 1 452 Kbps
Writing application : VirtualDubMod 1.5.10.3 | www.virtualdub-fr.org || (build 2550/release)
Writing library : VirtualDubMod build 2550/release
Video
ID : 0
Format : MPEG-4 Visual
Format profile : AdvancedSimple@L5
Format settings, BVOP : Yes
Format settings, QPel : No
Format settings, GMC : No warppoints
Format settings, Matrix : Default (MPEG)
Codec ID : XVID
Codec ID/Hint : XviD
Duration : 2h 22mn
Bit rate : 1 059 Kbps
Width : 720 pixels
Height : 304 pixels
Display aspect ratio : 2.35
Frame rate : 23.976 fps
Resolution : 24 bits
Colorimetry : 4:2:0
Scan type : Progressive
Bits/(Pixel*Frame) : 0.202
Stream size : 1.05 GiB (73%)
Writing library : XviD 63
Audio
ID : 1
Format : AC-3
Format/Info : Audio Coding 3
Codec ID : 2000
Duration : 2h 22mn
Bit rate mode : Constant
Bit rate : 384 Kbps
Channel(s) : 6 channels
Channel positions : Front: L C R, Surround: L R, LFE
Sampling rate : 48.0 KHz
Stream size : 391 MiB (26%)
Alignment : Split accross interleaves
Interleave, duration : 42 ms (1.00 video frame)
Interleave, preload duration : 500 ms
Скриншот c названием фильма Скриншоты
Скачать

Скачать торрент! Треугольник 2: Господин, его жена и... наш Гангстер возвращается / Saheb Biwi Aur Gangster Returns (Тигманшу Дхулия / Tigmanshu Dhulia) [2013, Индия, Боевик, криминал, драма, DVDRip] Sub Rus

Как скачивать? · Что такое торрент? · Рейтинг и ограничения

Сайт не распространяет и не хранит электронные версии произведений, а лишь предоставляет доступ к создаваемому пользователями каталогу ссылок на торрент-файлы, которые содержат только списки хеш-сумм

[Профиль] [ЛС]
Показать сообщения:    
Ответить на тему

Текущее время: Сегодня 02:40

Часовой пояс: GMT + 4



Вы не можете начинать темы
Вы не можете отвечать на сообщения
Вы не можете редактировать свои сообщения
Вы не можете удалять свои сообщения
Вы не можете голосовать в опросах
Вы не можете прикреплять файлы к сообщениям
Вы не можете скачивать файлы