Зодиак / Zodiac (Дэвид Финчер / David Fincher) [2007, США, триллер, криминал, драма, BDRip 1080p] Dub + AVO (Гаврилов) + Sub Rus, Eng + Original Eng

Ответить на тему
 
Автор Сообщение

user ®

Стаж: 7 лет 7 месяцев

Сообщений: 20008

Пост Пост: #1 от 13-Янв-2016 04:15

[Цитировать]

-Зодиак / Zodiac
«Есть много способов умереть от руки убийцы»- -Страна: США
Жанр: Триллер, Криминал, Драма
Год выпуска: 2007
Продолжительность: 02:42:36-Перевод 1: Профессиональный (дублированный)
Перевод 2: Авторский (одноголосый закадровый) Гаврилов
Cубтитры: Русские (полные, форсированные), Английские
Оригинальная аудиодорожка: Английская-Режиссер: Дэвид Финчер / David Fincher-В ролях: Джейк Джилленхол, Марк Руффало, Энтони Эдвардс, Роберт Дауни мл., Брайан Кокс, Джон Кэрролл Линч, Ричмонд Аркетт, Роберт Дж. Стефенсон, Джон Лэси, Клоэ Севиньи.-Описание: Жестокое, изощренное убийство двух подростков 20 декабря 1968 года вызвало волну ужаса и негодования в маленьком городке Валехо на севере Калифорнии. Сержант Мэт Пэриш берется расследовать это кровавое дело. Из-за отсутствия улик, оно так и остается нераскрытым.
Журналисты поднимают шумиху в прессе вокруг двойного убийства, обвиняя полицию в бездействии. А через шесть месяцев, 4 июля 1969 года в самый разгар праздника на автомобильной стоянке были найдены два трупа, убитые похожим образом. На следующий день газеты получили письмо, в котором человек, называющий себя Зодиаком, сообщал, что убийства будут продолжаться…- - -Тип релиза: BDRip 1080p
Контейнер: MKV-Видео: MPEG-4 AVC, 1920x800 (2.40:1), 23.976 fps, ~13308 kbps avg, 0.353 bit/pixel
Аудио 1: 48 kHz, AC3 Dolby Digital, 3/2 (L,C,R,l,r) + LFE ch, ~640 kbps avg
Аудио 2: 48 kHz, AC3 Dolby Digital, 3/2 (L,C,R,l,r) + LFE ch, ~448 kbps avg
Аудио 3: 48 kHz, DTS, 3/2 (L,C,R,l,r) + LFE ch, ~1510 kbps avg-MediaInfo
General
Unique ID : 215322570385063115967339274107167143161 (0xA1FD9E5C9D98ECA3A2A6A72B12CB74F9)
Complete name : E:\Zodiac (2007) BDRip 1080p Director's Cut.mkv
Format : Matroska
Format version : Version 2
File size : 17.7 GiB
Duration : 2h 42mn
Overall bit rate : 15.6 Mbps
Movie name : Zodiac (2007) BDRip 1080p
Encoded date : UTC 2016-01-11 20:01:00
Writing application : mkvmerge v3.0.0 ('Hang up your Hang-Ups') built on Dec 12 2009 15:20:35
Writing library : libebml v0.7.9 + libmatroska v0.8.1
Attachements : cover.jpg
Encoded by : Roth@WiNTeaM
Source : Zodiac.2007.1080p.Blu-ray.VC-1.TrueHD.5.1-XOXO@HDS
Video
ID : 1
Format : AVC
Format/Info : Advanced Video Codec
Format profile : High@L4.1
Format settings, CABAC : Yes
Format settings, ReFrames : 4 frames
Codec ID : V_MPEG4/ISO/AVC
Duration : 2h 42mn
Bit rate : 13.0 Mbps
Width : 1 920 pixels
Height : 800 pixels
Display aspect ratio : 2.40:1
Frame rate mode : Constant
Frame rate : 23.976 (24000/1001) fps
Color space : YUV
Chroma subsampling : 4:2:0
Bit depth : 8 bits
Scan type : Progressive
Bits/(Pixel*Frame) : 0.353
Stream size : 14.4 GiB (81%)
Writing library : x264 core 146 r2538kMod 121396c
Encoding settings : cabac=1 / ref=5 / deblock=1:-3:-3 / analyse=0x3:0x133 / me=umh / subme=10 / psy=1 / fade_compensate=0.00 / psy_rd=1.00:0.00 / mixed_ref=1 / me_range=64 / chroma_me=1 / trellis=2 / 8x8dct=1 / cqm=0 / deadzone=21,11 / fast_pskip=0 / chroma_qp_offset=-2 / threads=12 / lookahead_threads=2 / sliced_threads=0 / nr=0 / decimate=1 / interlaced=0 / bluray_compat=0 / constrained_intra=0 / fgo=0 / bframes=7 / b_pyramid=1 / b_adapt=2 / b_bias=0 / direct=3 / weightb=1 / open_gop=0 / weightp=2 / keyint=240 / keyint_min=23 / scenecut=40 / intra_refresh=0 / rc_lookahead=240 / rc=2pass / mbtree=1 / bitrate=13000 / ratetol=1.0 / qcomp=0.70 / qpmin=0 / qpmax=69 / qpstep=4 / cplxblur=20.0 / qblur=0.5 / vbv_maxrate=30000 / vbv_bufsize=40000 / nal_hrd=none / filler=0 / ip_ratio=1.40 / aq=1:1.00
Language : English
Default : No
Forced : No
Color range : Limited
Color primaries : BT.709
Transfer characteristics : BT.709
Matrix coefficients : BT.709
Statistics Tags Issue : mkvmerge v8.4.0 ('A better way to fly') 64bit 2015-10-05 18:40:12 / mkvmerge v3.0.0 ('Hang up your Hang-Ups') built on Dec 12 2009 15:20:35 2016-01-11 20:01:00
FromStats_BitRate : 12998846
FromStats_Duration : 02:42:36.914000000
FromStats_FrameCount : 233932
FromStats_StreamSize : 15853578876
Audio #1
ID : 2
Format : AC-3
Format/Info : Audio Coding 3
Mode extension : CM (complete main)
Format settings, Endianness : Big
Codec ID : A_AC3
Duration : 2h 42mn
Bit rate mode : Constant
Bit rate : 640 Kbps
Channel(s) : 6 channels
Channel positions : Front: L C R, Side: L R, LFE
Sampling rate : 48.0 KHz
Frame rate : 31.250 fps (1536 spf)
Compression mode : Lossy
Stream size : 744 MiB (4%)
Title : Дубляж
Language : Russian
Default : No
Forced : No
Audio #2
ID : 3
Format : AC-3
Format/Info : Audio Coding 3
Mode extension : CM (complete main)
Format settings, Endianness : Big
Codec ID : A_AC3
Duration : 2h 42mn
Bit rate mode : Constant
Bit rate : 448 Kbps
Channel(s) : 6 channels
Channel positions : Front: L C R, Side: L R, LFE
Sampling rate : 48.0 KHz
Frame rate : 31.250 fps (1536 spf)
Compression mode : Lossy
Stream size : 521 MiB (3%)
Title : Гаврилов
Language : Russian
Default : No
Forced : No
Audio #3
ID : 4
Format : DTS
Format/Info : Digital Theater Systems
Mode : 16
Format settings, Endianness : Big
Codec ID : A_DTS
Duration : 2h 42mn
Bit rate mode : Constant
Bit rate : 1 510 Kbps
Channel(s) : 6 channels
Channel positions : Front: L C R, Side: L R, LFE
Sampling rate : 48.0 KHz
Frame rate : 93.750 fps (512 spf)
Bit depth : 24 bits
Compression mode : Lossy
Stream size : 1.71 GiB (10%)
Title : Original
Language : English
Default : Yes
Forced : No
Text #1
ID : 5
Format : UTF-8
Codec ID : S_TEXT/UTF8
Codec ID/Info : UTF-8 Plain Text
Title : Russian
Language : Russian
Default : No
Forced : No
Text #2
ID : 6
Format : UTF-8
Codec ID : S_TEXT/UTF8
Codec ID/Info : UTF-8 Plain Text
Title : Forced
Language : Russian
Default : Yes
Forced : No
Text #3
ID : 7
Format : UTF-8
Codec ID : S_TEXT/UTF8
Codec ID/Info : UTF-8 Plain Text
Title : English
Language : English
Default : No
Forced : No
Menu
00:00:00.000 : en:00:00:00.000
00:06:19.212 : en:00:06:19.212
00:14:27.366 : en:00:14:27.366
00:17:39.058 : en:00:17:39.058
00:24:19.458 : en:00:24:19.458
00:31:34.226 : en:00:31:34.226
00:36:32.524 : en:00:36:32.524
00:42:18.369 : en:00:42:18.369
00:49:14.618 : en:00:49:14.618
00:55:51.014 : en:00:55:51.014
01:01:02.158 : en:01:01:02.158
01:06:51.507 : en:01:06:51.507
01:12:12.161 : en:01:12:12.161
01:17:48.664 : en:01:17:48.664
01:21:38.727 : en:01:21:38.727
01:34:37.171 : en:01:34:37.171
01:36:57.979 : en:01:36:57.979
01:41:54.275 : en:01:41:54.275
01:47:57.638 : en:01:47:57.638
01:56:02.455 : en:01:56:02.455
02:01:21.107 : en:02:01:21.107
02:07:19.966 : en:02:07:19.966
02:14:15.381 : en:02:14:15.381
02:21:36.154 : en:02:21:36.154
02:28:03.374 : en:02:28:03.374
02:34:35.433 : en:02:34:35.433
02:39:27.391 : en:02:39:27.391
Скриншоты
Скачать

Скачать торрент!

Как скачивать? · Что такое торрент? · Рейтинг и ограничения

Сайт не распространяет и не хранит электронные версии произведений, а лишь предоставляет доступ к создаваемому пользователями каталогу ссылок на торрент-файлы, которые содержат только списки хеш-сумм

[Профиль] [ЛС]
Показать сообщения:    
Ответить на тему

Текущее время: Сегодня 23:53

Часовой пояс: GMT + 4



Вы не можете начинать темы
Вы не можете отвечать на сообщения
Вы не можете редактировать свои сообщения
Вы не можете удалять свои сообщения
Вы не можете голосовать в опросах
Вы не можете прикреплять файлы к сообщениям
Вы не можете скачивать файлы