Снупи и мелочь пузатая в кино / The Peanuts Movie (Стив Мартино / Steve Martino) [2015 г., мультфильм, комедия, приключения, семейный, DVDScr] VO (Матвеев)

Ответить на тему
 
Автор Сообщение

user ®

Стаж: 11 лет

Сообщений: 15145

Пост Пост: #1 от 12-Янв-2016 18:57

[Цитировать]

Снупи и мелочь пузатая в кино / The Peanuts Movie
Страна: США
Жанр: мультфильм, комедия, приключения, семейный
Продолжительность: 01:28:06
Год выпуска: 2015
Перевод: Одноголосый закадровый Алексей Матвеев (Doctor_Joker)
Русские субтитры: нет
Режиссёр: Стив Мартино / Steve Martino
Роли озвучивали: Тромбоун Шорти, Ребекка Блум, Анастасия Бредихина, Франческа Капальди, Кристин Ченоуэт, Александр Гарфин, Ной Джонстон, Билл Мелендес, Хэдли Белль Миллер
Описание: Чарли Браун, Снупи, Люси, Линус и другие полюбившиеся персонажи комиксов «Мелочь пузатая» впервые появятся на большом экране в полнометражном анимационном фильме, снятом с использованием последних достижений 3D-анимации. Снупи — самый симпатичный пес в мире — к тому же, классный пилот — отправляется в невероятные воздушные приключения в погоне за главным злодеем Красным Бароном. В это время у его приятеля Чарли Брауна начинаются поистине эпические приключения!

Качество: DVDScr
Формат: AVI
Видео: XviD, 720x384 (1.88:1), 29.970 fps, XviD build 50 ~977 kbps avg, 0.12 bit/pixel
Аудио: AC3, 48 kHz, AC3 Dolby Digital, 2/0 (L,R) ch, ~192 kbps

Подробные технические данные
Complete name : Снупи и мелочь пузатая в кино.aviFormat : AVIFormat/Info : Audio Video InterleaveFile size : 744 MiBDuration : 1h 28mnOverall bit rate : 1 181 KbpsWriting application : VirtualDubMod 1.5.10.3 | www.virtualdub-fr.org || (build 2550/release)Writing library : VirtualDubMod build 2550/release
VideoID : 0Format : MPEG-4 VisualFormat profile : Advanced Simple@L5Format settings, BVOP : 2Format settings, QPel : NoFormat settings, GMC : No warppointsFormat settings, Matrix : Default (H.263)Codec ID : XVIDCodec ID/Hint : XviDDuration : 1h 28mnBit rate : 977 KbpsWidth : 720 pixelsHeight : 384 pixelsDisplay aspect ratio : 1.85:1Frame rate : 29.970 fpsColor space : YUVChroma subsampling : 4:2:0Bit depth : 8 bitsScan type : ProgressiveCompression mode : LossyBits/(Pixel*Frame) : 0.118Stream size : 616 MiB (83%)Writing library : XviD 1.2.1 (UTC 2008-12-04)
AudioID : 1Format : AC-3Format/Info : Audio Coding 3Mode extension : CM (complete main)Format settings, Endianness : BigCodec ID : 2000Duration : 1h 28mnBit rate mode : ConstantBit rate : 192 KbpsChannel(s) : 2 channelsChannel positions : Front: L RSampling rate : 48.0 KHzCompression mode : LossyStream size : 121 MiB (16%)Alignment : Split accross interleavesInterleave, duration : 33 ms (1.00 video frame)Interleave, preload duratio : 500 ms
Скриншоты
Скачать

Скачать торрент! Снупи и мелочь пузатая в кино / The Peanuts Movie (Стив Мартино / Steve Martino) [2015 г., мультфильм, комедия, приключения, семейный, DVDScr] VO (Матвеев)

Как скачивать? · Что такое торрент? · Рейтинг и ограничения

Сайт не распространяет и не хранит электронные версии произведений, а лишь предоставляет доступ к создаваемому пользователями каталогу ссылок на торрент-файлы, которые содержат только списки хеш-сумм

[Профиль] [ЛС]
Показать сообщения:    
Ответить на тему

Текущее время: Сегодня 19:29

Часовой пояс: GMT + 4



Вы не можете начинать темы
Вы не можете отвечать на сообщения
Вы не можете редактировать свои сообщения
Вы не можете удалять свои сообщения
Вы не можете голосовать в опросах
Вы не можете прикреплять файлы к сообщениям
Вы не можете скачивать файлы