Эта тревожная зима (Игорь Николаев) [1975, детский фильм, DVB-AVC]

Ответить на тему
 
Автор Сообщение

user ®

Стаж: 7 лет 7 месяцев

Сообщений: 20008

Пост Пост: #1 от 12-Янв-2016 15:51

[Цитировать]

Эта тревожная зима
Жанр: детский фильм
Год выпуска: 1975
Продолжительность: 01:12:24
Режиссёр: Игорь Николаев
В ролях: Александр Копов, Эдуард Марцевич, Елена Костерева, Елена Безносикова, Александр Симакин, Сурен Чахоян, Вячеслав Надаховский, Елена Максимова, Юлия Цоглин, Наталья Воробьева, Ольга Казина, Екатерина Гражданская, Наталья Воробьева, Александр Карнаушкин
Описание: Коля Филатов попадает с тяжелым заболеванием в санаторий, где ему предстоит неподвижно пролежать долгие месяцы. Коля берет себя в руки и не скисает. В палате много веселья и в дружном коллективе каждый день происходит непредсказуемое событие. Но мужества мальчику хватает не надолго. Почувствовав себя лучше, герой бежит из санатория...
Качество видео: DVB-AVC
Формат видео: MKV
Видео: H.264/AVC, 720x576, 4:3, 25.00fps, 1857 Kbps
Аудио: MP2 2.0, 48 kHz, 192 kbps
Сравнение
[url=http://***/forum/viewtopic.php?t=1141397]http://***/forum/viewtopic.php?t=1141397[/url]
http://screenshotcomparison.com/comparison/157843/
MediaInfo
General
Unique ID : 188202175087397204991769266204519807238 (0x8D966BA3439D6282ADDF60A732B9B906)
Complete name : Эта тревожная зима (1975) DVB.mkv
Format : Matroska
Format version : Version 4 / Version 2
File size : 1.06 GiB
Duration : 1h 12mn
Overall bit rate : 2 088 Kbps
Encoded date : UTC 2016-01-12 08:22:35
Writing application : mkvmerge v8.1.0 ('Psychedelic Postcard') 64bit
Writing library : libebml v1.3.1 + libmatroska v1.4.2
Video
ID : 1
Format : AVC
Format/Info : Advanced Video Codec
Format profile : Main@L3.0
Format settings, CABAC : Yes
Format settings, ReFrames : 4 frames
Format settings, GOP : M=4, N=24
Codec ID : V_MPEG4/ISO/AVC
Duration : 1h 12mn
Bit rate : 1 855 Kbps
Width : 720 pixels
Height : 576 pixels
Display aspect ratio : 4:3
Original display aspect ratio : 4:3
Frame rate mode : Constant
Frame rate : 25.000 fps
Standard : Component
Color space : YUV
Chroma subsampling : 4:2:0
Bit depth : 8 bits
Scan type : Interlaced
Scan order : Top Field First
Bits/(Pixel*Frame) : 0.179
Stream size : 961 MiB (89%)
Default : No
Forced : No
Color primaries : BT.601 PAL
Transfer characteristics : BT.470 System B, BT.470 System G
Matrix coefficients : BT.601
Color range : Limited
DURATION : 01:12:24.560000000
NUMBER_OF_FRAMES : 108614
NUMBER_OF_BYTES : 1028662389
_STATISTICS_WRITING_APP : mkvmerge v8.1.0 ('Psychedelic Postcard') 64bit
_STATISTICS_WRITING_DATE_UTC : 2016-01-12 08:22:35
_STATISTICS_TAGS : BPS DURATION NUMBER_OF_FRAMES NUMBER_OF_BYTES
Audio
ID : 2
Format : MPEG Audio
Format version : Version 1
Format profile : Layer 2
Codec ID : A_MPEG/L2
Codec ID/Hint : MP2
Duration : 1h 12mn
Bit rate mode : Constant
Bit rate : 192 Kbps
Channel(s) : 2 channels
Sampling rate : 48.0 KHz
Compression mode : Lossy
Stream size : 99.4 MiB (9%)
Language : Russian
Default : Yes
Forced : No
DURATION : 01:12:24.528000000
NUMBER_OF_FRAMES : 181022
NUMBER_OF_BYTES : 104268672
_STATISTICS_WRITING_APP : mkvmerge v8.1.0 ('Psychedelic Postcard') 64bit
_STATISTICS_WRITING_DATE_UTC : 2016-01-12 08:22:35
_STATISTICS_TAGS : BPS DURATION NUMBER_OF_FRAMES NUMBER_OF_BYTES
Скриншоты
Скачать

Скачать торрент!

Как скачивать? · Что такое торрент? · Рейтинг и ограничения

Сайт не распространяет и не хранит электронные версии произведений, а лишь предоставляет доступ к создаваемому пользователями каталогу ссылок на торрент-файлы, которые содержат только списки хеш-сумм

[Профиль] [ЛС]
Показать сообщения:    
Ответить на тему

Текущее время: Сегодня 00:42

Часовой пояс: GMT + 4



Вы не можете начинать темы
Вы не можете отвечать на сообщения
Вы не можете редактировать свои сообщения
Вы не можете удалять свои сообщения
Вы не можете голосовать в опросах
Вы не можете прикреплять файлы к сообщениям
Вы не можете скачивать файлы