Фантом / Phantom (Кабир Кхан / Kabir Khan) [2015, Индия, Боевик, триллер, драма, HDRip] DVO (DeadSno&Den904) + Sub Rus (на песни)

Ответить на тему
 
Автор Сообщение

user ®

Стаж: 12 лет

Сообщений: 15092

Пост Пост: #1 от 12-Янв-2016 12:45

[Цитировать]

Фантом / Phantom

История, которую вы хотели бы принять за правду
Страна: Индия
Жанр: Боевик, триллер, драма
Год выпуска: 2015
Продолжительность: 02:17:11-Перевод: Любительский (двухголосый закадровый) DeadSno&Den904
Cубтитры: Русские (на песни)-Режиссер: Кабир Кхан / Kabir Khan-В ролях: Саиф Али Кхан, Катрина Каиф, Сабьясачи Чакраборти, Раджеш Тайланг, Элайя Ахмад, Фара Ахмед, Брэнди Александр, Мохаммед Али, Маной Ананд, Джейн Кларк Андерсон-Описание: 26 ноября 2008 года был совершён один из крупнейших терактов в Мумбаи. Ответственность за теракт взяла на себя крупная террористическая организация "Лашкаре-Тайба", буквально переводимая, как «Армия Бога». В результате погибли 195 человек, более 300 были ранены. Этот фильм повествует о ликвидации лидеров этой группировки храбрыми индийскими солдатами, которые рискуя своими жизнями, вторглись под прикрытием на территорию Пакистана, чтобы уничтожить ячейку одной из самых опасных и жестоких террористических организаций в мире.- | | -Качество видео: HDRip
Формат видео: AVI
Видео: 720x304 (2.35:1), 23.976 fps, XviD build 64, 1290 Kbps, 0.246 bit/pixel
Аудио: 48 kHz, AC3 Dolby Digital, 6 ch, 448 Kbps-Озвучка: DeadSno&Den904
Перевод и редакция: ❖ Honey&Haseena ❖
Фильм переведён и озвучен в рамках проекта Индийская Лихорадка- -MediaInfo
General
Complete name : Phantom.2015.Kolobok.HoneyHaseena.avi
Format : AVI
Format/Info : Audio Video Interleave
File size : 1.67 GiB
Duration : 2h 17mn
Overall bit rate : 1 748 Kbps
Writing application : VirtualDubMod 1.5.10.2 (build 2540/release)
Writing library : VirtualDubMod build 2540/release
Video #0
ID : 0
Format : MPEG-4 Visual
Format profile : Advanced Simple@L5
Format settings, BVOP : 1
Format settings, QPel : No
Format settings, GMC : No warppoints
Format settings, Matrix : Default (H.263)
Muxing mode : Packed bitstream
Codec ID : XVID
Codec ID/Hint : XviD
Duration : 2h 17mn
Bit rate : 1 290 Kbps
Width : 720 pixels
Height : 304 pixels
Display aspect ratio : 2.35:1
Frame rate : 23.976 fps
Color space : YUV
Chroma subsampling : 4:2:0
Bit depth : 8 bits
Scan type : Progressive
Compression mode : Lossy
Bits/(Pixel*Frame) : 0.246
Stream size : 1.24 GiB (74%)
Writing library : XviD 64
Audio #1
ID : 1
Format : AC-3
Format/Info : Audio Coding 3
Mode extension : CM (complete main)
Format settings, Endianness : Big
Codec ID : 2000
Duration : 2h 17mn
Bit rate mode : Constant
Bit rate : 448 Kbps
Channel(s) : 6 channels
Channel positions : Front: L C R, Side: L R, LFE
Sampling rate : 48.0 KHz
Bit depth : 16 bits
Compression mode : Lossy
Stream size : 440 MiB (26%)
Alignment : Split accross interleaves
Interleave, duration : 42 ms (1.00 video frame)
Interleave, preload duration : 500 ms
Скриншот c названием фильма Скриншоты
Скачать

Скачать торрент! Фантом / Phantom (Кабир Кхан / Kabir Khan) [2015, Индия, Боевик, триллер, драма, HDRip] DVO (DeadSno&Den904) + Sub Rus (на песни)

Как скачивать? · Что такое торрент? · Рейтинг и ограничения

Сайт не распространяет и не хранит электронные версии произведений, а лишь предоставляет доступ к создаваемому пользователями каталогу ссылок на торрент-файлы, которые содержат только списки хеш-сумм

[Профиль] [ЛС]
Показать сообщения:    
Ответить на тему

Текущее время: Сегодня 11:35

Часовой пояс: GMT + 4



Вы не можете начинать темы
Вы не можете отвечать на сообщения
Вы не можете редактировать свои сообщения
Вы не можете удалять свои сообщения
Вы не можете голосовать в опросах
Вы не можете прикреплять файлы к сообщениям
Вы не можете скачивать файлы