Барселона / Barcelona (Уит Стиллман / Whit Stillman) [1994, США, драма, мелодрама, комедия, WEB-DL 720p] AVO (Сергей Визгунов) + Original Eng

Ответить на тему
 
Автор Сообщение

user ®

Стаж: 7 лет 7 месяцев

Сообщений: 20008

Пост Пост: #1 от 12-Янв-2016 03:24

[Цитировать]

Барселона / Barcelona
Страна: США
Студия: Barcelona Films, Castle Rock Entertainment, Fine Line Features
Жанр: драма, мелодрама, комедия
Год выпуска: 1994
Продолжительность: 01:41:33
Перевод: Авторский (одноголосый закадровый) Сергей Визгунов
Cубтитры: нет
Оригинальная аудиодорожка: английский
Режиссер: Уит Стиллман / Whit Stillman
В ролях: Тейлор Николс / Taylor Nichols, Кристофер Айджмен / Chris Eigeman, Тушка Берген / Tushka Bergen, Мира Сорвино / Mira Sorvino, Пеп Мунне / Pep Munné, Хеллена Шмид / Hellena Schmied, Нурия Бадия / Nuria Badia, Томас Гибсон / Thomas Gibson, Джек Гилпин / Jack Gilpin, Пере Понсе / Pere Ponce, Лаура Лопез / Laura López, Френсис Крейтон / Francis Creighton
Описание: Американец Фред постоянно рассказывает испанским девушкам разные небылицы про своего брата Теда, например, что тот садомазохист и носит кожаное белье. Как ни странно, это вызывает у девушек интерес к Теду. В остальных же случаях неугомонная болтливость Фреда доставляет обоим братьям массу неприятностей, что, как оказалось, было его неистребимой чертой.
II Сэмпл II IMDB II
Тип релиза: WEB-DL 720p
Контейнер: MKV
Видео: AVC / 1276x720 / 16:9 / 23.976fps / Bit rate 4048Kbps
Аудио 1: AC3 / 48.0 KHz / 1ch. / 128kbps / rus / AVO / Сергей Визгунов
Аудио 2: AAC-LC / 48.0 KHz / 2ch. / 156kbps / eng
MediaInfo
Общее
Уникальный идентификатор : 244770423343865448265040608585517877821 (0xB825119BAF9A86AA9A184D749223CA3D)
Полное имя : H:\Barcelona.1994.WEB-DL.720p_by_vedigo.mkv
Формат : Matroska
Версия формата : Version 4 / Version 2
Размер файла : 3,07 Гбайт
Продолжительность : 1 ч. 41 м.
Общий поток : 4334 Кбит/сек
Название фильма : Barcelona.1994.WEB-DL.720p_by_vedigo
Дата кодирования : UTC 2016-01-06 05:29:54
Программа кодирования : mkvmerge v8.7.0 ('All of the above') 64bit
Библиотека кодирования : libebml v1.3.3 + libmatroska v1.4.4
Видео
Идентификатор : 1
Формат : AVC
Формат/Информация : Advanced Video Codec
Профиль формата : High@L3.1
Параметр CABAC формата : Нет
Параметр ReFrames формата : 2 кадра
Идентификатор кодека : V_MPEG4/ISO/AVC
Продолжительность : 1 ч. 41 м.
Битрейт : 4048 Кбит/сек
Ширина : 1276 пикселей
Высота : 720 пикселей
Соотношение сторон : 16:9
Режим частоты кадров : Постоянный
Частота кадров : 23,976 (23976/1000) кадра/сек
Цветовое пространство : YUV
Субдискретизация насыщенности : 4:2:0
Битовая глубина : 8 бит
Тип развёртки : Прогрессивная
Бит/(Пиксели*Кадры) : 0.184
Размер потока : 2,87 Гбайт (93%)
Заголовок : Barcelona.1994.WEB-DL.720p_by_vedigo
Default : Да
Forced : Нет
Цветовой диапазон : Limited
Основные цвета : BT.709
Характеристики трансфера : BT.709
Коэффициенты матрицы : BT.709
Аудио #1
Идентификатор : 2
Формат : AC-3
Формат/Информация : Audio Coding 3
Расширение режима : CM (complete main)
Параметр Endianness формата : Big
Идентификатор кодека : A_AC3
Продолжительность : 1 ч. 41 м.
Вид битрейта : Постоянный
Битрейт : 128 Кбит/сек
Каналы : 1 канал
Расположение каналов : Front: C
Частота : 48,0 КГц
Частота кадров : 31,250 кадров/сек (1536 spf)
Метод сжатия : С потерями
Размер потока : 93,0 Мбайт (3%)
Заголовок : AVO @ Сергей Визгунов
Язык : Russian
Default : Да
Forced : Нет
Аудио #2
Идентификатор : 3
Формат : AAC
Формат/Информация : Advanced Audio Codec
Профиль формата : LC
Идентификатор кодека : A_AAC
Продолжительность : 1 ч. 41 м.
Битрейт : 156 Кбит/сек
Каналы : 2 канала
Расположение каналов : Front: L R
Частота : 48,0 КГц
Частота кадров : 46,875 кадров/сек (1024 spf)
Метод сжатия : С потерями
Размер потока : 113 Мбайт (4%)
Заголовок : original
Язык : English
Default : Нет
Forced : Нет
Меню
00:00:00.000 : en:1
00:10:00.000 : en:2
00:20:01.000 : en:3
00:30:01.000 : en:4
00:40:02.000 : en:5
00:50:03.000 : en:6
01:00:03.000 : en:7
01:10:04.000 : en:8
01:20:04.000 : en:9
01:30:05.000 : en:10
Скриншоты
Скачать

Скачать торрент!

Как скачивать? · Что такое торрент? · Рейтинг и ограничения

Сайт не распространяет и не хранит электронные версии произведений, а лишь предоставляет доступ к создаваемому пользователями каталогу ссылок на торрент-файлы, которые содержат только списки хеш-сумм

[Профиль] [ЛС]
Показать сообщения:    
Ответить на тему

Текущее время: Сегодня 06:04

Часовой пояс: GMT + 4



Вы не можете начинать темы
Вы не можете отвечать на сообщения
Вы не можете редактировать свои сообщения
Вы не можете удалять свои сообщения
Вы не можете голосовать в опросах
Вы не можете прикреплять файлы к сообщениям
Вы не можете скачивать файлы