Программа защиты принцесс / Princess Protection Program (Эллисон Лидди / Allison Liddi) [2009, США, комедия, семейный, WEB-DL 1080p] Dub + DVO + Sub Rus, Eng + Original Eng

Ответить на тему
 
Автор Сообщение

user ®

Стаж: 7 лет 7 месяцев

Сообщений: 20008

Пост Пост: #1 от 12-Янв-2016 03:24

[Цитировать]

Программа защиты принцесс / Princess Protection Program
Страна: США
Студия: Disney Channel, Rainforest Productions
Жанр: комедия, семейный
Год выпуска: 2009
Продолжительность: 01:29:36
Перевод 1: Профессиональный (дублированный)
Перевод 2: Профессиональный (двухголосый закадровый)
Cубтитры: русские, английские
Оригинальная аудиодорожка: английский
Режиссер: Эллисон Лидди / Allison Liddi
В ролях: Селена Гомез, Деми Ловато, Джэми Чунг, Николас Браун, Молли Хэйгэн, Кевин Шмидт, Дейл Дикки, Саманта Дроук, Роберт Адамсон, Джонни Рэй...
Описание: Когда крошечную страну захватывает диктатор, молодая «Принцесса» Рози, арестована в соответствии с «Программой защиты принцесс». Она сбегает далеко в деревеньку Висконсин, где она должна изучить и осмыслить свою жизнь как нормальный американский подросток. В процессе приспосабливания к новой жизни, Рози меняется…
II Сэмпл II IMDB II
Доп. информация:
Дутой двухголоске сделан даунмикс.
Тип релиза: WEB-DL 1080p
Контейнер: MKV
Видео: AVC / 1920x1080 / 16:9 / 23.976fps / Bit rate 5248Kbps
Аудио 1: AC3 / 48.0 KHz / 6ch. / 384kbps / rus / Dub
Аудио 2: AC3 / 48.0 KHz / 2ch. / 192kbps / rus / DVO
Аудио 3: AC3 / 48.0 KHz / 6ch. / 384kbps / eng
Формат субтитров: softsub (SRT)
MediaInfo
Общее
Уникальный идентификатор : 172693151976573573020079574881448673465 (0x81EB7DC3196F3AE7AD0F2CEEDABAC0B9)
Полное имя : H:\!_Torrent\Princess.Protection.Program.2009.WEB-DL.1080p_by_vedigo.mkv
Формат : Matroska
Версия формата : Version 4 / Version 2
Размер файла : 3,89 Гбайт
Продолжительность : 1 ч. 29 м.
Общий поток : 6208 Кбит/сек
Название фильма : Princess.Protection.Program.2009.WEB-DL.1080p_by_vedigo
Дата кодирования : UTC 2016-01-07 12:00:19
Программа кодирования : mkvmerge v8.7.0 ('All of the above') 64bit
Библиотека кодирования : libebml v1.3.3 + libmatroska v1.4.4
Видео
Идентификатор : 1
Формат : AVC
Формат/Информация : Advanced Video Codec
Профиль формата : High@L4
Параметр CABAC формата : Да
Параметр ReFrames формата : 4 кадра
Идентификатор кодека : V_MPEG4/ISO/AVC
Продолжительность : 1 ч. 29 м.
Битрейт : 5248 Кбит/сек
Ширина : 1920 пикселей
Высота : 1080 пикселей
Соотношение сторон : 16:9
Режим частоты кадров : Постоянный
Частота кадров : 23,976 (23976/1000) кадра/сек
Цветовое пространство : YUV
Субдискретизация насыщенности : 4:2:0
Битовая глубина : 8 бит
Тип развёртки : Прогрессивная
Бит/(Пиксели*Кадры) : 0.106
Размер потока : 3,28 Гбайт (85%)
Заголовок : Princess.Protection.Program.2009.WEB-DL.1080p_by_vedigo
Default : Да
Forced : Нет
Цветовой диапазон : Limited
Основные цвета : BT.709
Характеристики трансфера : BT.709
Коэффициенты матрицы : BT.709
Аудио #1
Идентификатор : 2
Формат : AC-3
Формат/Информация : Audio Coding 3
Расширение режима : CM (complete main)
Параметр Endianness формата : Big
Идентификатор кодека : A_AC3
Продолжительность : 1 ч. 29 м.
Вид битрейта : Постоянный
Битрейт : 384 Кбит/сек
Каналы : 6 каналов
Расположение каналов : Front: L C R, Side: L R, LFE
Частота : 48,0 КГц
Частота кадров : 31,250 кадров/сек (1536 spf)
Метод сжатия : С потерями
Размер потока : 246 Мбайт (6%)
Заголовок : Dub
Язык : Russian
Default : Да
Forced : Нет
Аудио #2
Идентификатор : 3
Формат : AC-3
Формат/Информация : Audio Coding 3
Расширение режима : CM (complete main)
Параметр Endianness формата : Big
Идентификатор кодека : A_AC3
Продолжительность : 1 ч. 29 м.
Вид битрейта : Постоянный
Битрейт : 192 Кбит/сек
Каналы : 2 канала
Расположение каналов : Front: L R
Частота : 48,0 КГц
Частота кадров : 31,250 кадров/сек (1536 spf)
Метод сжатия : С потерями
Размер потока : 123 Мбайт (3%)
Заголовок : DVO
Язык : Russian
Default : Нет
Forced : Нет
Аудио #3
Идентификатор : 4
Формат : AC-3
Формат/Информация : Audio Coding 3
Расширение режима : CM (complete main)
Параметр Endianness формата : Big
Идентификатор кодека : A_AC3
Продолжительность : 1 ч. 29 м.
Вид битрейта : Постоянный
Битрейт : 384 Кбит/сек
Каналы : 6 каналов
Расположение каналов : Front: L C R, Side: L R, LFE
Частота : 48,0 КГц
Частота кадров : 31,250 кадров/сек (1536 spf)
Метод сжатия : С потерями
Размер потока : 246 Мбайт (6%)
Заголовок : original
Язык : English
Default : Нет
Forced : Нет
Текст #1
Идентификатор : 5
Формат : UTF-8
Идентификатор кодека : S_TEXT/UTF8
Идентификатор кодека/Информация : UTF-8 Plain Text
Продолжительность : 1 ч. 27 м.
Битрейт : 112 бит/сек
Count of elements : 1177
Размер потока : 71,9 Кбайт (0%)
Заголовок : subtitle rus
Язык : Russian
Default : Нет
Forced : Нет
Текст #2
Идентификатор : 6
Формат : UTF-8
Идентификатор кодека : S_TEXT/UTF8
Идентификатор кодека/Информация : UTF-8 Plain Text
Продолжительность : 1 ч. 28 м.
Битрейт : 67 бит/сек
Count of elements : 1447
Размер потока : 43,4 Кбайт (0%)
Заголовок : subtitle eng
Язык : English
Default : Нет
Forced : Нет
Меню
00:00:00.000 : :Chapter 01
00:03:39.000 : :Chapter 02
00:09:22.000 : :Chapter 03
00:15:06.000 : :Chapter 04
00:22:20.000 : :Chapter 05
00:27:52.000 : :Chapter 06
00:32:26.000 : :Chapter 07
00:40:39.000 : :Chapter 08
00:45:13.000 : :Chapter 09
00:53:37.000 : :Chapter 10
00:56:33.000 : :Chapter 11
01:02:27.000 : :Chapter 12
01:09:46.000 : :Chapter 13
01:14:56.000 : :Chapter 14
01:22:55.000 : :Chapter 15
01:26:07.000 : :Chapter 16
Скриншоты
Скачать

Скачать торрент!

Как скачивать? · Что такое торрент? · Рейтинг и ограничения

Сайт не распространяет и не хранит электронные версии произведений, а лишь предоставляет доступ к создаваемому пользователями каталогу ссылок на торрент-файлы, которые содержат только списки хеш-сумм

[Профиль] [ЛС]
Показать сообщения:    
Ответить на тему

Текущее время: Сегодня 21:21

Часовой пояс: GMT + 4



Вы не можете начинать темы
Вы не можете отвечать на сообщения
Вы не можете редактировать свои сообщения
Вы не можете удалять свои сообщения
Вы не можете голосовать в опросах
Вы не можете прикреплять файлы к сообщениям
Вы не можете скачивать файлы