Ужин с придурком / Le diner de cons (Франсис Вебер / Francis Veber) [1998, Франция, комедия, BDRemux 1080p] MVO + Original Fre + Sub Rus, Eng, Fre

Ответить на тему
 
Автор Сообщение

user ®

Стаж: 7 лет 7 месяцев

Сообщений: 20008

Пост Пост: #1 от 12-Янв-2016 03:24

[Цитировать]

Ужин с придурком / Le dîner de cons- Страна: Франция
Год выпуска: 1998
Студия: Gaumont
Жанр: Комедия
Продолжительность: 01:20:00
Перевод: профессиональный многоголосый закадровый
Оригинальная аудиодорожка: французская
Cубтитры: русские, английские, французские
Навигация по главам: есть-Режиссер: Франсис Вебер / Francis Veber
Оператор: Лучиано Товоли / Luciano Tovoli
Композитор: Владимир Косма / Vladimir Cosma
В ролях: Тьерри Лермитт, Жак Вильре, Франсис Юстер, Даниэль Прево, Александра Вандернот, Катрин Фро, Пьер-Арно Жюэн, Даниэль Мартен, Петронилла Мосс, Кристиан Перейра и др.

Описание: «Ужин с придурком» (фр. Le dîner de cons) — фильм режиссёра Франсиса Вебера, вышедший на экраны в 1998 году. Адаптация одноимённой пьесы, в которой режиссёром также был Франсис Вебер, и в которой Жак Вильре играл ту же самую роль.
Сюжет: Каждую среду компания молодых аристократов устраивает ужин, на который каждый участник должен привести одного придурка. Тот, чей идиот окажется самым убедительным, выигрывает приз. Когда до Пьера дошла очередь привести гостя, он очень обрадовался. Ведь накануне Пьер как раз познакомился с умопомрачительным, фантастическим идиотом Франсуа Пиньоном. Но пригласив его на ужин, Пьер и представить себе не мог, что за несколько часов этот Пиньон полностью разрушит его жизнь...
Blu-ray-Тип релиза: BDRemux 1080p | [url=http://***/forum/viewtopic.php?t=4524710]BDRip 1080p[/url]
Контейнер: MKV
Видео: H.264 / 1920x1080 (16:9 | 2.35:1) / 24.000 fps / 25797 kbps / High@L4.1
Аудио №1: AC3 5.1 / 16 bits / 48 kHz / 448 Kbps / Русский (MVO)
Аудио №2: DTS-HD MA 5.1 | DTS Core 5.1 / 24 bits / 48 kHz / ~3840 | 1509 Kbps / Французский (Original)
Аудио №3: AC3 2.0 / 16 bits / 48 kHz / 224 Kbps / Французский (Комментарии)
Формат субтитров: softsub (SRT)
Аппаратная совместимость: Ремукс полностью совместим с железными медиаплеерами, проверено на телевизоре Panasonic TX-PR50VT60.

MediaInfo
Общее
Уникальный идентификатор : 235378665944156121712505064634053738989 (0xB1144837C86188F0B8D8D7257922C1ED)
Полное имя : G:\КИНО\Фильмы 90-х\Ужин с придурком - Le diner de cons (1998)\Le.diner.de.cons.1998.BDRemux.1080p.Rus.Fre.mkv
Формат : Matroska
Версия формата : Version 4 / Version 2
Размер файла : 16,9 Гбайт
Продолжительность : 1 ч. 20 м.
Режим общего битрейта : Переменный
Общий поток : 30,3 Мбит/сек
Дата кодирования : UTC 2016-01-09 11:43:45
Программа кодирования : mkvmerge v8.6.1 ('Flying') 64bit
Библиотека кодирования : libebml v1.3.3 + libmatroska v1.4.4
Видео
Идентификатор : 1
Формат : AVC
Формат/Информация : Advanced Video Codec
Профиль формата : High@L4.1
Параметр CABAC формата : Да
Параметр ReFrames формата : 4 кадра
Параметр GOP формата : M=3, N=18
Идентификатор кодека : V_MPEG4/ISO/AVC
Продолжительность : 1 ч. 20 м.
Вид битрейта : Переменный
Битрейт : 25,8 Мбит/сек
Максимальный битрейт : 35,0 Мбит/сек
Ширина : 1920 пикселей
Высота : 1080 пикселей
Соотношение сторон : 16:9
Режим частоты кадров : Постоянный
Частота кадров : 24,000 кадра/сек
Стандарт вещания : PAL
Цветовое пространство : YUV
Субдискретизация насыщенности : 4:2:0
Битовая глубина : 8 бит
Тип развёртки : Прогрессивная
Бит/(Пиксели*Кадры) : 0.518
Размер потока : 14,4 Гбайт (85%)
Язык : French
Default : Да
Forced : Нет
colour_range : Limited
Основные цвета : BT.709
Характеристики трансфера : BT.709
Коэффициенты матрицы : BT.709
Аудио #1
Идентификатор : 2
Формат : AC-3
Формат/Информация : Audio Coding 3
Расширение режима : CM (complete main)
Параметр Endianness формата : Big
Идентификатор кодека : A_AC3
Продолжительность : 1 ч. 19 м.
Вид битрейта : Постоянный
Битрейт : 448 Кбит/сек
Каналы : 6 каналов
Расположение каналов : Front: L C R, Side: L R, LFE
Частота : 48,0 КГц
Частота кадров : 31,250 кадров/сек (1536 spf)
Метод сжатия : С потерями
Размер потока : 256 Мбайт (1%)
Заголовок : MVO
Язык : Russian
Default : Да
Forced : Нет
Аудио #2
Идентификатор : 3
Формат : DTS
Формат/Информация : Digital Theater Systems
Профиль формата : MA / Core
Режим : 16
Параметр Endianness формата : Big
Идентификатор кодека : A_DTS
Продолжительность : 1 ч. 19 м.
Вид битрейта : Переменный / Постоянный
Битрейт : 3840 Кбит/сек / 1509 Кбит/сек
Каналы : 6 каналов
Расположение каналов : Front: L C R, Side: L R, LFE
Частота : 48,0 КГц
Частота кадров : 93,750 кадра/сек (512 spf)
Битовая глубина : 24 бит
Метод сжатия : Без потерь / Lossy
Размер потока : 2,11 Гбайт (12%)
Заголовок : Original
Язык : French
Default : Нет
Forced : Нет
Аудио #3
Идентификатор : 4
Формат : AC-3
Формат/Информация : Audio Coding 3
Расширение режима : CM (complete main)
Параметр Endianness формата : Big
Идентификатор кодека : A_AC3
Продолжительность : 1 ч. 19 м.
Вид битрейта : Постоянный
Битрейт : 224 Кбит/сек
Каналы : 2 канала
Расположение каналов : Front: L R
Частота : 48,0 КГц
Частота кадров : 31,250 кадров/сек (1536 spf)
Метод сжатия : С потерями
Размер потока : 128 Мбайт (1%)
Заголовок : Comments
Язык : French
Default : Нет
Forced : Нет
Текст #1
Идентификатор : 5
Формат : UTF-8
Идентификатор кодека : S_TEXT/UTF8
Идентификатор кодека/Информация : UTF-8 Plain Text
Продолжительность : 1 ч. 16 м.
Битрейт : 141 бит/сек
Count of elements : 1065
Размер потока : 79,8 Кбайт (0%)
Язык : Russian
Default : Нет
Forced : Нет
Текст #2
Идентификатор : 6
Формат : UTF-8
Идентификатор кодека : S_TEXT/UTF8
Идентификатор кодека/Информация : UTF-8 Plain Text
Продолжительность : 1 ч. 16 м.
Битрейт : 69 бит/сек
Count of elements : 1200
Размер потока : 38,8 Кбайт (0%)
Язык : English
Default : Нет
Forced : Нет
Текст #3
Идентификатор : 7
Формат : UTF-8
Идентификатор кодека : S_TEXT/UTF8
Идентификатор кодека/Информация : UTF-8 Plain Text
Продолжительность : 1 ч. 16 м.
Битрейт : 93 бит/сек
Count of elements : 1339
Размер потока : 52,3 Кбайт (0%)
Язык : French
Default : Нет
Forced : Нет
Меню
00:00:00.000 : fr:Chapitre 1
00:03:14.082 : fr:Chapitre 2
00:05:26.457 : fr:Chapitre 3
00:07:32.915 : fr:Chapitre 4
00:11:21.875 : fr:Chapitre 5
00:14:34.041 : fr:Chapitre 6
00:16:04.207 : fr:Chapitre 7
00:18:45.040 : fr:Chapitre 8
00:22:43.458 : fr:Chapitre 9
00:26:50.665 : fr:Chapitre 10
00:31:51.750 : fr:Chapitre 11
00:37:14.875 : fr:Chapitre 12
00:41:09.416 : fr:Chapitre 13
00:43:34.041 : fr:Chapitre 14
00:45:56.541 : fr:Chapitre 15
00:48:06.041 : fr:Chapitre 16
00:51:59.375 : fr:Chapitre 17
00:55:46.500 : fr:Chapitre 18
01:00:10.750 : fr:Chapitre 19
01:06:54.500 : fr:Chapitre 20
01:07:55.666 : fr:Chapitre 21
01:10:13.541 : fr:Chapitre 22
01:12:47.625 : fr:Chapitre 23
01:17:40.291 : fr:Chapitre 24
01:19:57.541 : fr:Chapitre 25
Скриншоты - Дополнительно
ВСЕ МОИ РАЗДАЧИ
Скачать

Скачать торрент!

Как скачивать? · Что такое торрент? · Рейтинг и ограничения

Сайт не распространяет и не хранит электронные версии произведений, а лишь предоставляет доступ к создаваемому пользователями каталогу ссылок на торрент-файлы, которые содержат только списки хеш-сумм

[Профиль] [ЛС]
Показать сообщения:    
Ответить на тему

Текущее время: Сегодня 22:34

Часовой пояс: GMT + 4



Вы не можете начинать темы
Вы не можете отвечать на сообщения
Вы не можете редактировать свои сообщения
Вы не можете удалять свои сообщения
Вы не можете голосовать в опросах
Вы не можете прикреплять файлы к сообщениям
Вы не можете скачивать файлы