Антиганг / Отряд / Antigang (Бенжамен Роше / S. Benjamin Rocher) [2015, Великобритания, Франция, боевик, драма, BDRip 720p] [FRE Transfer] MVO + 2x Sub (Eng, Fre) + Original Fre

Ответить на тему
 
Автор Сообщение

user ®

Стаж: 7 лет 7 месяцев

Сообщений: 20008

Пост Пост: #1 от 12-Янв-2016 03:24

[Цитировать]

Антиганг / Отряд / Antigang
Страна: Великобритания, Франция
Жанр: боевик, драма
Год выпуска: 2015
Продолжительность: 01:32:43
Перевод: Любительский (многоголосый закадровый) Paradox & Omskbird records
Cубтитры: английские, французские
Оригинальная аудиодорожка: французский
-
Режиссер: Бенжамен Роше / S. Benjamin Rocher
В ролях: Жан Рено, Элбан Ленуар, Катерина Мурино, Умар Диау, Стефи Сельма, Себастьен ЛаЛэйнн, Тьерри Нёвик, Жан-Туссен Бернард, Якоб Седергрен, Сабрина Уазани
-
Описание: Серж Бюрен - легендарный полицейский, возглавляющий группу молодых приспешников с нетипичным подходом. И неважно, используют ли они бейсбольные биты или напрочь забывают об уставе во время показательных арестов, результат налицо. В то же время группировка смертоносных грабителей с легкостью обчищает столичные банки и ювелирные магазины. Бюрен и его подразделение попадают в непростую ситуацию: окажутся ли привычные им методы быстрого реагирования достаточными, для того чтобы остановить преступников?

Тип релиза: BDRip 720p
Контейнер: MKV
Видео: H.264 / NTSC 16:9 / 1280x534 (2,40:1) / 6102 kbps / 24 fps / 0.363 bit/pixel / High@L4.1
Аудио 1: Russian / AC3 / 48 kHz / 5.1 Ch / 448 kbps / 16 bit / MVO
Аудио 2: French / AC3 / 48 kHz / 5.1 Ch / 640 kbps / 16 bit / Original
Формат субтитров: softsub (SRT)
Навигация по главам: есть

Перевод и озвучка
Роли озвучивали: Анна Тух, Александр Дасевич, Константин Погодаев, Сергей Науменко, Павел Ярощик и Давид Бродский
Перевод: Екатерина Кузнецова
Звукорежиссер: Павел Квентов
Любая реклама отсутствует
Сэмпл MediaInfo
Общее
Уникальный идентификатор : 241350282023950924110144519707476425995 (0xB5925F9F3E81B598A900705CC7A4FD0B)
Полное имя : N:\BDRip 720p\Antigang.2015.BDRip.720p.mkv
Формат : Matroska
Версия формата : Version 4 / Version 2
Размер файла : 4,66 Гбайт
Продолжительность : 1 ч. 32 м.
Общий поток : 7192 Кбит/сек
Название фильма : Antigang.2015.BluRay.720p.DTS.x264-EPiC
Дата кодирования : UTC 2016-01-09 22:07:53
Программа кодирования : mkvmerge v8.7.0 ('All of the above') 64bit
Библиотека кодирования : libebml v1.3.3 + libmatroska v1.4.4
DURATION : 01:32:19.208000000
NUMBER_OF_FRAMES : 994
NUMBER_OF_BYTES : 26190
_STATISTICS_WRITING_APP : mkvmerge v8.7.0 ('All of the above') 64bit
_STATISTICS_WRITING_DATE_UTC : 2016-01-09 22:07:53
_STATISTICS_TAGS : BPS DURATION NUMBER_OF_FRAMES NUMBER_OF_BYTES
Видео
Идентификатор : 1
Формат : AVC
Формат/Информация : Advanced Video Codec
Профиль формата : High@L4.1
Параметр CABAC формата : Да
Параметр ReFrames формата : 12 кадров
Идентификатор кодека : V_MPEG4/ISO/AVC
Продолжительность : 1 ч. 32 м.
Битрейт : 5961 Кбит/сек
Ширина : 1280 пикселей
Высота : 534 пикселя
Соотношение сторон : 2,40:1
Режим частоты кадров : Постоянный
Частота кадров : 24,000 кадра/сек
Цветовое пространство : YUV
Субдискретизация насыщенности : 4:2:0
Битовая глубина : 8 бит
Тип развёртки : Прогрессивная
Бит/(Пиксели*Кадры) : 0.363
Размер потока : 3,86 Гбайт (83%)
Библиотека кодирования : x264 core 146 r2538 121396c
Настройки программы : cabac=1 / ref=12 / deblock=1:-2:-1 / analyse=0x3:0x133 / me=umh / subme=11 / psy=1 / psy_rd=1.05:0.10 / mixed_ref=1 / me_range=32 / chroma_me=1 / trellis=2 / 8x8dct=1 / cqm=0 / deadzone=21,11 / fast_pskip=0 / chroma_qp_offset=-4 / threads=6 / lookahead_threads=1 / sliced_threads=0 / nr=0 / decimate=1 / interlaced=0 / bluray_compat=0 / constrained_intra=0 / bframes=10 / b_pyramid=2 / b_adapt=2 / b_bias=0 / direct=1 / weightb=1 / open_gop=0 / weightp=2 / keyint=230 / keyint_min=21 / scenecut=40 / intra_refresh=0 / rc_lookahead=60 / rc=crf / mbtree=0 / crf=17.5 / qcomp=0.70 / qpmin=0 / qpmax=69 / qpstep=4 / vbv_maxrate=30000 / vbv_bufsize=40000 / crf_max=0.0 / nal_hrd=none / filler=0 / ip_ratio=1.35 / pb_ratio=1.25 / aq=2:0.90
Язык : French
Default : Да
Forced : Нет
DURATION : 01:32:43.209000000
NUMBER_OF_FRAMES : 133517
NUMBER_OF_BYTES : 4243086343
_STATISTICS_WRITING_APP : mkvmerge v8.7.0 ('All of the above') 64bit
_STATISTICS_WRITING_DATE_UTC : 2016-01-09 22:07:53
_STATISTICS_TAGS : BPS DURATION NUMBER_OF_FRAMES NUMBER_OF_BYTES
Аудио #1
Идентификатор : 2
Формат : AC-3
Формат/Информация : Audio Coding 3
Расширение режима : CM (complete main)
Параметр Endianness формата : Big
Идентификатор кодека : A_AC3
Продолжительность : 1 ч. 32 м.
Вид битрейта : Постоянный
Битрейт : 448 Кбит/сек
Каналы : 6 каналов
Расположение каналов : Front: L C R, Side: L R, LFE
Частота : 48,0 КГц
Метод сжатия : С потерями
Размер потока : 297 Мбайт (6%)
Заголовок : MVO / Paradox & Omskbird records
Язык : Russian
Default : Да
Forced : Нет
Аудио #2
Идентификатор : 3
Формат : AC-3
Формат/Информация : Audio Coding 3
Расширение режима : CM (complete main)
Параметр Endianness формата : Big
Идентификатор кодека : A_AC3
Продолжительность : 1 ч. 32 м.
Вид битрейта : Постоянный
Битрейт : 640 Кбит/сек
Каналы : 6 каналов
Расположение каналов : Front: L C R, Side: L R, LFE
Частота : 48,0 КГц
Метод сжатия : С потерями
Размер потока : 424 Мбайт (9%)
Заголовок : Original
Язык : French
Default : Нет
Forced : Нет
Текст #1
Идентификатор : 4
Формат : UTF-8
Идентификатор кодека : S_TEXT/UTF8
Идентификатор кодека/Информация : UTF-8 Plain Text
Заголовок : ENG
Язык : English
Default : Нет
Forced : Нет
Текст #2
Идентификатор : 5
Формат : UTF-8
Идентификатор кодека : S_TEXT/UTF8
Идентификатор кодека/Информация : UTF-8 Plain Text
Заголовок : Original
Язык : French
Default : Нет
Forced : Нет
Меню
00:00:00.000 : en:00:00:00.000
00:09:31.583 : en:00:09:31.583
00:15:51.333 : en:00:15:51.333
00:22:25.708 : en:00:22:25.708
00:29:54.333 : en:00:29:54.333
00:36:30.208 : en:00:36:30.208
00:43:29.792 : en:00:43:29.792
00:50:36.708 : en:00:50:36.708
00:57:26.500 : en:00:57:26.500
01:04:12.333 : en:01:04:12.333
01:14:01.833 : en:01:14:01.833
01:21:59.625 : en:01:21:59.625
Скриншоты
Скачать

Скачать торрент!

Как скачивать? · Что такое торрент? · Рейтинг и ограничения

Сайт не распространяет и не хранит электронные версии произведений, а лишь предоставляет доступ к создаваемому пользователями каталогу ссылок на торрент-файлы, которые содержат только списки хеш-сумм

[Профиль] [ЛС]
Показать сообщения:    
Ответить на тему

Текущее время: Сегодня 20:22

Часовой пояс: GMT + 4



Вы не можете начинать темы
Вы не можете отвечать на сообщения
Вы не можете редактировать свои сообщения
Вы не можете удалять свои сообщения
Вы не можете голосовать в опросах
Вы не можете прикреплять файлы к сообщениям
Вы не можете скачивать файлы