Молл Флэндерс / Moll Flanders (Пен Деншэм / Pen Densham) [1996, США, драма, мелодрама, HDTV 1080i] MVO + DVO (НТВ+) + AVO (Петр Карцев) + Sub Rus, Eng + Original Eng

Ответить на тему
 
Автор Сообщение

user ®

Стаж: 7 лет 7 месяцев

Сообщений: 20008

Пост Пост: #1 от 12-Янв-2016 03:24

[Цитировать]

Молл Флэндерс / Moll Flanders

Слоган: «The remarkable story of one woman's unbreakable spirit»
Страна: США
Студия: Metro-Goldwyn-Mayer (MGM), Spelling Films, Trilogy Entertainment Group
Жанр: драма, мелодрама
Год выпуска: 1996
Продолжительность: 02:02:23
Перевод 1: Профессиональный (многоголосый закадровый)
Перевод 2: Профессиональный (двухголосый закадровый) - НТВ+
Перевод 3: Авторский (одноголосый закадровый) - Петр Карцев
Cубтитры: английские(SDH), русские
Оригинальная аудиодорожка: английский
Режиссер: Пен Деншэм / Pen Densham
В ролях: Робин Райт, Морган Фриман, Стокард Ченнинг, Джон Линч, Бренда Фрикер, Джеральдин Джеймс, Эшлинг Коркоран, Джим Шеридан, Джереми Бретт, Бритта Смит ...
Описание: Молл Флендерс была «убийцей, потаскухой и воровкой». Историю ее удивительной жизни рассказывает ее дочери старый друг. На долю Молл выпадает нелегкое детство. Дочь вора, после смерти матери она попадает в женский монастырь. Но оскорбительное поведение священника и мятежный дух гонят ее прочь от монастырских стен — на опасные улицы Лондона.
Доп. информация: Исходник Moll Flanders (1996) 1080i HDTV DD2.0 MPEG2-TrollHD найден в сети.--Синхронизация звук. дорожек [url=http://***/forum/profile.php?mode=viewprofile&u=5916601]Нордер[/url]
За что ему превеликая благодарность
-- --Moll Flanders (1996)_1080i HDTV_Sample_.mkv-
-
...из книги «3500 кинорецензий»

-
-Тип релиза: HDTV 1080i
Контейнер: MKV
Видео: MPEG-2 Video / 16.4 Mbps / 1080i / 29.970 fps / 16:9
Аудио 1: Russian / Dolby Digital Audio / 5.1 / 48 kHz / 384 kbps - MVO
Аудио 2: Russian / Dolby Digital Audio / 2.0 / 48 kHz / 192 kbps - DVO НТВ+
Аудио 3: Russian / Dolby Digital Audio / 2.0 / 48 kHz / 192 kbps - AVO Петр Карцев
Аудио 4: English / Dolby Digital Audio / 2.0 / 48 kHz / 384 kbps
Формат субтитров: softsub (SRT)
MediaInfo
General
Unique ID : 236469309508000268587920442180097505989 (0xB1E65518E333274A9EFEFB0CBECB7AC5)
Complete name : I:\111\z_D_Disk\Moll Flanders (1996)_1080i HDTV_.mkv
Format : Matroska
Format version : Version 4 / Version 2
File size : 15.4 GiB
Duration : 2h 2mn
Overall bit rate mode : Variable
Overall bit rate : 17.9 Mbps
Encoded date : UTC 2016-01-07 15:43:15
Writing application : mkvmerge v8.6.1 ('Flying') 64bit
Writing library : libebml v1.3.3 + libmatroska v1.4.4
Video
ID : 1
Format : MPEG Video
Format version : Version 2
Format profile : Main@High
Format settings, BVOP : Yes
Format settings, Matrix : Custom
Format settings, GOP : M=3, N=15
Format settings, picture st : Frame
Codec ID : V_MPEG2
Codec ID/Info : MPEG 1 or 2 Video
Duration : 2h 2mn
Bit rate mode : Variable
Bit rate : 16.4 Mbps
Maximum bit rate : 18.0 Mbps
Width : 1 920 pixels
Height : 1 080 pixels
Display aspect ratio : 16:9
Frame rate mode : Constant
Frame rate : 29.970 fps
Color space : YUV
Chroma subsampling : 4:2:0
Bit depth : 8 bits
Scan type : Interlaced
Scan order : Top Field First
Compression mode : Lossy
Bits/(Pixel*Frame) : 0.264
Time code of first frame : 00:00:00;00
Time code source : Group of pictures header
GOP, Open/Closed : Open
GOP, Open/Closed of first f : Closed
Stream size : 14.1 GiB (92%)
Title : Moll Flanders (1996)_1080i HDTV_[rjhlb777]
Language : English
Default : Yes
Forced : No
Audio #1
ID : 2
Format : AC-3
Format/Info : Audio Coding 3
Mode extension : CM (complete main)
Format settings, Endianness : Big
Codec ID : A_AC3
Duration : 2h 2mn
Bit rate mode : Constant
Bit rate : 384 Kbps
Channel(s) : 6 channels
Channel positions : Front: L C R, Side: L R, LFE
Sampling rate : 48.0 KHz
Compression mode : Lossy
Stream size : 337 MiB (2%)
Title : MVO
Language : Russian
Default : Yes
Forced : No
Audio #2
ID : 3
Format : AC-3
Format/Info : Audio Coding 3
Mode extension : CM (complete main)
Format settings, Endianness : Big
Codec ID : A_AC3
Duration : 2h 2mn
Bit rate mode : Constant
Bit rate : 192 Kbps
Channel(s) : 2 channels
Channel positions : Front: L R
Sampling rate : 48.0 KHz
Compression mode : Lossy
Stream size : 168 MiB (1%)
Title : DVO "HTB+"
Language : Russian
Default : No
Forced : No
Audio #3
ID : 4
Format : AC-3
Format/Info : Audio Coding 3
Mode extension : CM (complete main)
Format settings, Endianness : Big
Codec ID : A_AC3
Duration : 2h 2mn
Bit rate mode : Constant
Bit rate : 192 Kbps
Channel(s) : 2 channels
Channel positions : Front: L R
Sampling rate : 48.0 KHz
Compression mode : Lossy
Stream size : 168 MiB (1%)
Title : AVO (Петр Карцев)
Language : Russian
Default : No
Forced : No
Audio #4
ID : 5
Format : AC-3
Format/Info : Audio Coding 3
Mode extension : CM (complete main)
Format settings, Endianness : Big
Codec ID : A_AC3
Duration : 2h 2mn
Bit rate mode : Constant
Bit rate : 384 Kbps
Channel(s) : 2 channels
Channel positions : Front: L R
Sampling rate : 48.0 KHz
Compression mode : Lossy
Stream size : 337 MiB (2%)
Language : English
Default : No
Forced : No
Text #1
ID : 6
Format : UTF-8
Codec ID : S_TEXT/UTF8
Codec ID/Info : UTF-8 Plain Text
Language : Russian
Default : No
Forced : No
Text #2
ID : 7
Format : UTF-8
Codec ID : S_TEXT/UTF8
Codec ID/Info : UTF-8 Plain Text
Title : SDH
Language : English
Default : No
Forced : No
Скриншоты
Скачать

Скачать торрент!

Как скачивать? · Что такое торрент? · Рейтинг и ограничения

Сайт не распространяет и не хранит электронные версии произведений, а лишь предоставляет доступ к создаваемому пользователями каталогу ссылок на торрент-файлы, которые содержат только списки хеш-сумм

[Профиль] [ЛС]
Показать сообщения:    
Ответить на тему

Текущее время: Сегодня 05:10

Часовой пояс: GMT + 4



Вы не можете начинать темы
Вы не можете отвечать на сообщения
Вы не можете редактировать свои сообщения
Вы не можете удалять свои сообщения
Вы не можете голосовать в опросах
Вы не можете прикреплять файлы к сообщениям
Вы не можете скачивать файлы