Дон Верден / Don Verdean (Джаред Хесс / Jared Hess) [2015, США, комедия, WEB-DL 1080p] DVO (Ozz) + Sub Rus + Original Eng

Ответить на тему
 
Автор Сообщение

user ®

Стаж: 7 лет 7 месяцев

Сообщений: 20008

Пост Пост: #1 от 12-Янв-2016 03:24

[Цитировать]

Дон Верден / Don Verdean
Страна: США
Студия: Davis Entertainment, RatPac-Dune Entertainment, Warner Bros
Жанр: комедия
Год выпуска: 2015
Продолжительность: 01:36:07
Перевод: Профессиональный (двухголосый закадровый) Ozz
Cубтитры: русские (Максим Чайкин)
Оригинальная аудиодорожка: английский
Режиссер: Джаред Хесс / Jared Hess
В ролях: Сэм Рокуэлл, Эми Райан, Уилл Форте, Дэнни МакБрайд, Джемейн Клемент, Стив Парк, Лесли Бибб, Скай Элобар, П.Дж. Будуск, Янив Мойал
Описание: Библейский археолог Дон Вердиан нанят пастором местной церкви, для поиска реликвий, способствующих обретению веры, в Святой Земле. Но после бесплодных экспедиций он вынужден подойти к вопросу творчески в этой комедии веры и мошенничества.
Доп. информация: Озвучка: Алексей Серёгин и Ирина Воронова. Перевод: Максим Чайкин

Sample
Тип релиза: WEB-DL 1080p
Контейнер: MKV
Видео: MPEG4 AVC Video, H264, 16:9, 1908x1068, 23.976 fps, 4999 kbps
Аудио: Russian (AC3, 2 ch, 192 kbps, 16 bits, 48.0 KHz) - DVO
Аудио 2: English (AC3, 6 ch, 384 kbps, 16 bits, 48.0 KHz) - оригинал
Формат субтитров: softsub (SRT)

MediaInfo
General
Unique ID : 200876933954022974975721860589461021066 (0x971F7D7F4FD6CEDA8DD1EE48DCC9A18A)
Complete name : D:\Don Verdean 2015 WEB-DL 1080p.mkv
Format : Matroska
Format version : Version 4 / Version 2
File size : 3.82 GiB
Duration : 1h 36mn
Overall bit rate : 5 688 Kbps
Encoded date : UTC 2016-01-10 00:47:49
Writing application : mkvmerge v6.1.0 ('Old Devil') built on Mar 2 2013 14:32:37
Writing library : libebml v1.3.0 + libmatroska v1.4.0
Video
ID : 1
Format : AVC
Format/Info : Advanced Video Codec
Format profile : High@L4.0
Format settings, CABAC : Yes
Format settings, ReFrames : 4 frames
Codec ID : V_MPEG4/ISO/AVC
Duration : 1h 36mn
Bit rate : 4 999 Kbps
Width : 1 908 pixels
Height : 1 068 pixels
Display aspect ratio : 16:9
Frame rate mode : Constant
Frame rate : 23.976 fps
Color space : YUV
Chroma subsampling : 4:2:0
Bit depth : 8 bits
Scan type : Progressive
Bits/(Pixel*Frame) : 0.102
Stream size : 3.36 GiB (88%)
Language : English
Default : Yes
Forced : No
Color primaries : BT.709
Transfer characteristics : BT.709
Matrix coefficients : BT.709
Audio #1
ID : 2
Format : AC-3
Format/Info : Audio Coding 3
Mode extension : CM (complete main)
Format settings, Endianness : Big
Codec ID : A_AC3
Duration : 1h 36mn
Bit rate mode : Constant
Bit rate : 192 Kbps
Channel count : 2 channels
Channel positions : Front: L R
Sampling rate : 48.0 KHz
Bit depth : 16 bits
Compression mode : Lossy
Stream size : 132 MiB (3%)
Language : Russian
Default : Yes
Forced : No
Audio #2
ID : 3
Format : AC-3
Format/Info : Audio Coding 3
Mode extension : CM (complete main)
Format settings, Endianness : Big
Codec ID : A_AC3
Duration : 1h 36mn
Bit rate mode : Constant
Bit rate : 384 Kbps
Channel count : 6 channels
Channel positions : Front: L C R, Side: L R, LFE
Sampling rate : 48.0 KHz
Bit depth : 16 bits
Compression mode : Lossy
Stream size : 264 MiB (7%)
Language : English
Default : No
Forced : No
Text
ID : 4
Format : UTF-8
Codec ID : S_TEXT/UTF8
Codec ID/Info : UTF-8 Plain Text
Language : Russian
Default : No
Forced : No
Menu
00:00:00.000 : en:1
00:12:25.000 : en:2
00:24:10.000 : en:3
00:34:47.000 : en:4
00:46:42.000 : en:5
00:57:21.000 : en:6
01:08:09.000 : en:7
01:19:36.000 : en:8
01:32:25.000 : en:9
Скриншоты
Скачать

Скачать торрент!

Как скачивать? · Что такое торрент? · Рейтинг и ограничения

Сайт не распространяет и не хранит электронные версии произведений, а лишь предоставляет доступ к создаваемому пользователями каталогу ссылок на торрент-файлы, которые содержат только списки хеш-сумм

[Профиль] [ЛС]
Показать сообщения:    
Ответить на тему

Текущее время: Сегодня 08:12

Часовой пояс: GMT + 4



Вы не можете начинать темы
Вы не можете отвечать на сообщения
Вы не можете редактировать свои сообщения
Вы не можете удалять свои сообщения
Вы не можете голосовать в опросах
Вы не можете прикреплять файлы к сообщениям
Вы не можете скачивать файлы