Дом двух семей / Two Family House (Раймонд Де Фелитта / Raymond De Felitta) [2000, США, драма, мелодрама, комедия, WEB-DL 720p] DVO + Sub Eng + Original Eng

Ответить на тему
 
Автор Сообщение

user ®

Стаж: 7 лет 7 месяцев

Сообщений: 20008

Пост Пост: #1 от 12-Янв-2016 03:24

[Цитировать]

Дом двух семей / Two Family House
Страна: США
Студия: Filbert Steps Productions
Жанр: драма, мелодрама, комедия
Год выпуска: 2000
Продолжительность: 01:48:26
Перевод: Профессиональный (двухголосый закадровый)
Cубтитры: английские
Оригинальная аудиодорожка: английский
Режиссер: Раймонд Де Фелитта / Raymond De Felitta
В ролях: Майкл Рисполи, Келли Макдоналд, Кэтрин Нардуччи, Кевин Конуэй, Мэтт Сервитто, Мишель Сантопьетро, Луис Гасс, Розмари Де Анджелис, Энтони Аркин, Сол Стайн
Описание: Бадди работает на фабрике и мечтает о том великом дне, когда получит новую жизнь его незаурядный талант певца. Расстроенные от невыносимых претензий его пессимистичной супруги Эстель, скромные мечты о величии превращаются в бесконечные схемы быстрого обогащения. Одной из таких схем и становится покупка двухэтажного дома на две семьи с целью переоборудовать первый этаж под пиццерию, где Бадди мог бы исполнять свои песни.
Препятствием на пути к цели становится ирландская пара: Мэр и Джим, арендующая второй этаж дома и категорически отказывающаяся освобождатъ помещение. В то время как Бадди предпринимает действия, едва не доводящие до потасовки, у Мэри рождается ребенок. Бадди оказывается перед выбором между тем миром, который ему до отвращения знаком, и другим, где Бадди Визало — певец и мечтатель — в первый раз в своей жизни по-настоящему влюблен…

Кинопоиск
Sample
Тип релиза: WEB-DL 720p
Контейнер: MKV
Видео: MPEG4 AVC Video, H264, 16:9, 1280x718, 23.976 fps, 4012 kbps
Аудио: Russian (AC3, 6 ch, 384 kbps, 16 bits, 48.0 KHz) - DVO
Аудио 2: English (AC3, 6 ch, 384 kbps, 16 bits, 48.0 KHz) - оригинал
Формат субтитров: softsub (SRT)

MediaInfo
General
Unique ID : 234055558932387129554754971315405502478 (0xB0157601766D4105B1A1553B3E62B80E)
Complete name : E:\Two Family House 2000 WEB-DL 720p.mkv
Format : Matroska
Format version : Version 4 / Version 2
File size : 3.69 GiB
Duration : 1h 48mn
Overall bit rate : 4 877 Kbps
Movie name :
Encoded date : UTC 2016-01-10 00:53:54
Writing application : mkvmerge v6.1.0 ('Old Devil') built on Mar 2 2013 14:32:37
Writing library : libebml v1.3.0 + libmatroska v1.4.0
Video
ID : 1
Format : AVC
Format/Info : Advanced Video Codec
Format profile : High@L3.1
Format settings, CABAC : No
Format settings, ReFrames : 2 frames
Codec ID : V_MPEG4/ISO/AVC
Duration : 1h 48mn
Bit rate : 4 012 Kbps
Width : 1 280 pixels
Height : 718 pixels
Display aspect ratio : 16:9
Frame rate mode : Constant
Frame rate : 23.976 fps
Color space : YUV
Chroma subsampling : 4:2:0
Bit depth : 8 bits
Scan type : Progressive
Bits/(Pixel*Frame) : 0.182
Stream size : 3.04 GiB (82%)
Language : English
Default : Yes
Forced : No
Color primaries : BT.709
Transfer characteristics : BT.709
Matrix coefficients : BT.709
Audio #1
ID : 2
Format : AC-3
Format/Info : Audio Coding 3
Mode extension : CM (complete main)
Format settings, Endianness : Big
Codec ID : A_AC3
Duration : 1h 48mn
Bit rate mode : Constant
Bit rate : 384 Kbps
Channel count : 6 channels
Channel positions : Front: L C R, Side: L R, LFE
Sampling rate : 48.0 KHz
Bit depth : 16 bits
Compression mode : Lossy
Stream size : 298 MiB (8%)
Language : Russian
Default : Yes
Forced : No
Audio #2
ID : 3
Format : AC-3
Format/Info : Audio Coding 3
Mode extension : CM (complete main)
Format settings, Endianness : Big
Codec ID : A_AC3
Duration : 1h 48mn
Bit rate mode : Constant
Bit rate : 384 Kbps
Channel count : 6 channels
Channel positions : Front: L C R, Side: L R, LFE
Sampling rate : 48.0 KHz
Bit depth : 16 bits
Compression mode : Lossy
Stream size : 298 MiB (8%)
Language : English
Default : No
Forced : No
Text
ID : 4
Format : UTF-8
Codec ID : S_TEXT/UTF8
Codec ID/Info : UTF-8 Plain Text
Language : English
Default : No
Forced : No
Menu
00:00:00.000 : en:Chapter 1
00:02:20.000 : en:Chapter 2
00:13:40.000 : en:Chapter 3
00:21:57.000 : en:Chapter 4
00:32:15.000 : en:Chapter 5
00:41:05.000 : en:Chapter 6
00:53:14.000 : en:Chapter 7
01:02:25.000 : en:Chapter 8
01:10:03.000 : en:Chapter 9
01:20:01.000 : en:Chapter 10
01:28:43.000 : en:Chapter 11
01:39:06.000 : en:Chapter 12
01:44:59.000 : en:Chapter 13
Скриншоты
Скачать

Скачать торрент!

Как скачивать? · Что такое торрент? · Рейтинг и ограничения

Сайт не распространяет и не хранит электронные версии произведений, а лишь предоставляет доступ к создаваемому пользователями каталогу ссылок на торрент-файлы, которые содержат только списки хеш-сумм

[Профиль] [ЛС]
Показать сообщения:    
Ответить на тему

Текущее время: Сегодня 01:49

Часовой пояс: GMT + 4



Вы не можете начинать темы
Вы не можете отвечать на сообщения
Вы не можете редактировать свои сообщения
Вы не можете удалять свои сообщения
Вы не можете голосовать в опросах
Вы не можете прикреплять файлы к сообщениям
Вы не можете скачивать файлы