Марсианин / The Martian (Ридли Скотт / Ridley Scott) [2015, США, Великобритания, фантастика, приключения, BDRip 1080p] Dub + Sub Rus, Eng + Original Eng

Ответить на тему
 
Автор Сообщение

user ®

Стаж: 7 лет 7 месяцев

Сообщений: 20008

Пост Пост: #1 от 12-Янв-2016 03:24

[Цитировать]

Марсианин / The Martian
Страна: США, Великобритания
Жанр: фантастика, приключения
Год выпуска: 2015
Продолжительность: 02:21:37-Перевод: Профессиональный (дублированный)
Cубтитры: Английские, русские, украинские
Оригинальная аудиодорожка: английский-Режиссер: Ридли Скотт / Ridley Scott-В ролях: Мэтт Дэймон, Джессика Честейн, Чиветель Эджиофор, Кристен Уиг, Джефф Дэниелс, Майкл Пенья, Шон Бин, Кейт Мара, Себастьян Стэн, Аксель Хенни
Описание: Марсианская миссия «Арес-3» в процессе работы была вынуждена экстренно покинуть планету из-за надвигающейся песчаной бури. Инженер и биолог Марк Уотни получил повреждение скафандра во время песчаной бури. Сотрудники миссии, посчитав его погибшим, эвакуировались с планеты, оставив Марка одного.
Очнувшись, Уотни обнаруживает, что связь с Землёй отсутствует, но при этом полностью функционирует жилой модуль. Главный герой начинает искать способ продержаться на имеющихся запасах еды, витаминов, воды и воздуха ещё 4 года до прилёта следующей миссии «Арес-4».-Рип от TayTO!-Релиз от:
-Тип релиза: BDRip 1080p
Контейнер: MKV-Видео: 1920x800 (2.40:1), 23,976 fps, MPEG-4 AVC, ~ 14309 bps-Аудио 1: Russian: 48 kHz, DTS, 3/2 (L,C,R,l,r) + LFE ch, ~768.00 kbps avg BD EUR
Аудио 2: Ukrainian: 48 kHz, AC3, 3/2 (L,C,R,l,r) + LFE ch, ~448.00 kbps avg
Аудио 3: English: 48 kHz, DTS, 3/2 (L,C,R,l,r) + LFE ch, ~1536.00 kbps avg
Сэмпл MediaInfo
General
Уникальный идентификатор : 194313613752057125218644350017385468933 (0x922F70D3DC0308FCBCFF7E9F218F1405)
Полное имя : D:\The.Martian.1080p.mkv
Формат : Matroska
Версия формата : Version 2
Размер файла : 16.9 GiB
Продолжительность : 2h 21mn
Общий поток : 17.0 Mbps
Название фильма : The Martian (2015) - Release for HDCLUB
Дата кодирования : UTC 2016-01-09 17:42:58
Программа кодирования : mkvmerge v3.4.0 ('Rapunzel') built on May 15 2010 09:38:20
Библиотека кодирования : libebml v0.8.0 + libmatroska v0.9.0
Attachements : Cover.jpg
Video
Идентификатор : 1
Формат : AVC
Формат/Информация : Advanced Video Codec
Профиль формата : High@L4.1
Параметр CABAC формата : Yes
Параметр ReFrames формата : 5 frames
Идентификатор кодека : V_MPEG4/ISO/AVC
Продолжительность : 2h 21mn
Битрейт : 14.0 Mbps
Ширина : 1 920 pixels
Высота : 800 pixels
Соотношение сторон : 2.40:1
Режим частоты кадров : Constant
Частота кадров : 23.976 fps
Цветовое пространство : YUV
Субдискретизация насыщенности : 4:2:0
Битовая глубина : 8 bits
Тип развёртки : Progressive
Бит/(Пиксели*Кадры) : 0.379
Размер потока : 13.8 GiB (82%)
Заголовок : The Martian (2015) - Release for HDCLUB
Библиотека кодирования : x264 core 142 r2431+42 c69a006 tMod [8-bit@all X86_64]
Настройки программы : cabac=1 / ref=5 / deblock=1:-3:-3 / analyse=0x3:0x133 / me=tesa / subme=11 / psy=1 / fade_compensate=0.00 / psy_rd=1.05:0.00 / mixed_ref=1 / me_range=32 / chroma_me=1 / trellis=2 / 8x8dct=1 / cqm=0 / deadzone=21,11 / fast_pskip=0 / chroma_qp_offset=-2 / threads=12 / lookahead_threads=2 / sliced_threads=0 / nr=0 / decimate=0 / interlaced=0 / bluray_compat=0 / constrained_intra=0 / fgo=0 / bframes=8 / b_pyramid=2 / b_adapt=2 / b_bias=0 / direct=3 / weightb=1 / open_gop=0 / weightp=2 / keyint=250 / keyint_min=23 / scenecut=40 / intra_refresh=0 / rc_lookahead=60 / rc=crf / mbtree=0 / crf=16.5000 / qcomp=0.65 / qpmin=0:0:0 / qpmax=69:69:69 / qpstep=4 / vbv_maxrate=62500 / vbv_bufsize=78125 / crf_max=0.0 / nal_hrd=none / filler=0 / ip_ratio=1.24 / pb_ratio=1.18 / aq=3:0.80 / aq-sensitivity=10.00 / aq-factor=1.00:1.00:1.00 / aq2=0 / aq3=0 / zones=48,1010,crf=15/1660,2082,crf=15.5/7292,13300,crf=16/16619,16688,crf=15/33320,34770,crf=17/40048,40320,crf=17/41795,42232,crf=17/49947,50364,crf=17/53716,53972,crf=15.5/54747,54958,crf=16/55683,55909,crf=15.5/63551,64000,crf=17/67015,67095,crf=15/67180,67240,crf=15/68161,68193,crf=15/68272,68322,crf=15/74143,74189,crf=15.5/74732,75165,crf=16/75968,76398,crf=15.5/82920,83184,crf=17/85846,85967,crf=16/89762,90070,crf=15.5/90332,90444,crf=13.5/90608,96218,crf=15.7/103084,103194,crf=13.5/103731,103775,crf=15/106245,107560,crf=17/109200,109411,crf=17/113125,113252,crf=16/114099,115258,crf=16/115676,117929,crf=17/119287,119321,crf=14/119359,121725,crf=17/122367,122445,crf=17/125100,125395,crf=17/131340,132582,crf=17/132583,132668,crf=15.5/134534,134910,crf=17/135946,136039,crf=17/143210,143254,crf=15/148548,148605,crf=15.5/148859,149160,crf=15/149560,149641,crf=16/150798,150864,crf=15.5/150865,152286,crf=17/155410,155649,crf=13.5/155743,155960,crf=13.5/156562,156953,crf=15.5/158344,158445,crf=15.5/161182,161350,crf=14.5/164565,164648,crf=17/165098,165231,crf=16/166748,166828,crf=13/167090,167266,crf=13.5/167310,167429,crf=14.5/167541,167632,crf=13/167685,167816,crf=13.5/167891,167945,crf=14/168132,168374,crf=13.5/168384,168478,crf=15.5/169152,169321,crf=15/170164,170263,crf=15.5/171202,171816,crf=15/172616,172728,crf=16/174815,174841,crf=15/175105,175131,crf=15/175492,175635,crf=16/176033,176209,crf=17/176210,176278,crf=15.5/177409,177654,crf=15.5/180010,180110,crf=17/180129,180196,crf=17/182095,182141,crf=15.5/182671,182739,crf=16/183054,183165,crf=16/183525,183656,crf=16/184071,192320,crf=16/195790,203737,crf=21
Язык : English
Default : Yes
Forced : No
Коэффициенты матрицы : BT.709
colour_range : Limited
Audio #1
Идентификатор : 2
Формат : DTS
Формат/Информация : Digital Theater Systems
Режим : 16
Параметр Endianness формата : Big
Идентификатор кодека : A_DTS
Продолжительность : 2h 21mn
Вид битрейта : Constant
Битрейт : 768 Kbps
Каналы : 6 channels
Расположение каналов : Front: L C R, Side: L R, LFE
Частота : 48.0 KHz
Битовая глубина : 24 bits
Метод сжатия : Lossy
Размер потока : 778 MiB (5%)
Заголовок : DTS 5.1 @ 768 kbps - DUB, Blu-ray 3D EUR
Язык : Russian
Default : Yes
Forced : No
Audio #2
Идентификатор : 3
Формат : AC-3
Формат/Информация : Audio Coding 3
Расширение режима : CM (complete main)
Параметр Endianness формата : Big
Идентификатор кодека : A_AC3
Продолжительность : 2h 21mn
Вид битрейта : Constant
Битрейт : 448 Kbps
Каналы : 6 channels
Расположение каналов : Front: L C R, Side: L R, LFE
Частота : 48.0 KHz
Битовая глубина : 16 bits
Метод сжатия : Lossy
Размер потока : 454 MiB (3%)
Заголовок : AC3 5.1 @ 448 kbps - DUB, Blu-ray 3D EUR
Язык : Ukrainian
Default : No
Forced : No
Audio #3
Идентификатор : 4
Формат : DTS
Формат/Информация : Digital Theater Systems
Режим : 16
Параметр Endianness формата : Big
Идентификатор кодека : A_DTS
Продолжительность : 2h 21mn
Вид битрейта : Constant
Битрейт : 1 509 Kbps
Каналы : 6 channels
Расположение каналов : Front: L C R, Side: L R, LFE
Частота : 48.0 KHz
Битовая глубина : 24 bits
Метод сжатия : Lossy
Задержка видео : 11ms
Размер потока : 1.49 GiB (9%)
Заголовок : DTS 5.1 @ 1536 kbps
Язык : English
Default : No
Forced : No
Text #1
Идентификатор : 5
Формат : UTF-8
Идентификатор кодека : S_TEXT/UTF8
Идентификатор кодека/Информация : UTF-8 Plain Text
Заголовок : Forced, iTunes
Язык : Russian
Default : Yes
Forced : No
Text #2
Идентификатор : 6
Формат : UTF-8
Идентификатор кодека : S_TEXT/UTF8
Идентификатор кодека/Информация : UTF-8 Plain Text
Заголовок : iTunes
Язык : Russian
Default : No
Forced : No
Text #3
Идентификатор : 7
Формат : UTF-8
Идентификатор кодека : S_TEXT/UTF8
Идентификатор кодека/Информация : UTF-8 Plain Text
Заголовок : iTunes
Язык : Ukrainian
Default : No
Forced : No
Text #4
Идентификатор : 8
Формат : UTF-8
Идентификатор кодека : S_TEXT/UTF8
Идентификатор кодека/Информация : UTF-8 Plain Text
Заголовок : Forced, iTunes
Язык : English
Default : No
Forced : No
Text #5
Идентификатор : 9
Формат : UTF-8
Идентификатор кодека : S_TEXT/UTF8
Идентификатор кодека/Информация : UTF-8 Plain Text
Заголовок : iTunes
Язык : English
Default : No
Forced : No
Menu
00:00:00.000 : en:Chapter 1
00:03:22.285 : en:Chapter 2
00:10:08.983 : en:Chapter 3
00:15:24.590 : en:Chapter 4
00:18:25.187 : en:Chapter 5
00:21:34.376 : en:Chapter 6
00:24:28.092 : en:Chapter 7
00:28:52.689 : en:Chapter 8
00:31:36.645 : en:Chapter 9
00:34:21.101 : en:Chapter 10
00:39:13.434 : en:Chapter 11
00:41:21.771 : en:Chapter 12
00:46:23.531 : en:Chapter 13
00:49:25.087 : en:Chapter 14
00:56:15.747 : en:Chapter 15
00:59:40.494 : en:Chapter 16
01:02:23.823 : en:Chapter 17
01:06:53.134 : en:Chapter 18
01:09:52.980 : en:Chapter 19
01:13:51.302 : en:Chapter 20
01:18:38.255 : en:Chapter 21
01:22:52.467 : en:Chapter 22
01:30:41.269 : en:Chapter 23
01:37:30.094 : en:Chapter 24
01:43:31.997 : en:Chapter 25
01:46:16.287 : en:Chapter 26
01:50:18.737 : en:Chapter 27
01:54:07.966 : en:Chapter 28
01:57:49.312 : en:Chapter 29
02:04:41.683 : en:Chapter 30
02:11:05.733 : en:Chapter 31
02:13:28.792 : en:Chapter 32
Скриншоты
Скачать

Скачать торрент!

Как скачивать? · Что такое торрент? · Рейтинг и ограничения

Сайт не распространяет и не хранит электронные версии произведений, а лишь предоставляет доступ к создаваемому пользователями каталогу ссылок на торрент-файлы, которые содержат только списки хеш-сумм

[Профиль] [ЛС]
Показать сообщения:    
Ответить на тему

Текущее время: Сегодня 20:33

Часовой пояс: GMT + 4



Вы не можете начинать темы
Вы не можете отвечать на сообщения
Вы не можете редактировать свои сообщения
Вы не можете удалять свои сообщения
Вы не можете голосовать в опросах
Вы не можете прикреплять файлы к сообщениям
Вы не можете скачивать файлы