Зеленый ад / The Green Inferno (Элай Рот / Eli Roth) [2013, Чили, США, ужасы, приключения, BDRemux 1080p] DVO (2D) + VO (Хихидок) + Sub Eng + Original Eng

Ответить на тему
 
Автор Сообщение

user ®

Стаж: 7 лет 7 месяцев

Сообщений: 20008

Пост Пост: #1 от 12-Янв-2016 03:24

[Цитировать]

Зеленый ад / The Green Inferno
Страна: Чили, США
Студия: Worldview Entertainment, Dragonfly Entertainment, Sobras International Pictures
Жанр: ужасы, приключения
Год выпуска: 2013
Продолжительность: 01:40:53
Перевод 1: Любительский (двухголосый закадровый) DeadSno & den904
Перевод 2: Одноголосый закадровый Хихидок
Cубтитры: английские
Оригинальная аудиодорожка: английский
Режиссер: Элай Рот / Eli Roth
В ролях: Лоренца Иззо, Ариэль Леви, Дэрил Сабара, Кирби Блисс Блэнтон, Магда Апанович, Скай Феррейра, Николас Мартинез, Аарон Барнс, Игнасия Алламанд, Рамон Льяо и др.
Описание: Группа студентов и активистов путешествует по Амазонке, их цель — спасти вымирающее племя коренных жителей сельвы. Но авиакатастрофа рушит их планы — студенты становятся заложниками племени людоедов, которое они так защищали.
II Сэмпл II IMDB II
Тип релиза: BDRemux 1080p
Контейнер: MKV
Видео: AVC / 1920x1080 / 16:9 / 23.976fps / Bit rate 31800Kbps / High@L4.1
Аудио 1: AC3 / 48.0 KHz / 2ch. / 192kbps / rus / DVO / 2D
Аудио 2: AC3 / 48.0 KHz / 2ch. / 192kbps / rus / VO / Хихидок
Аудио 3: DTS-MA / 48.0 KHz / 6ch. / 4095kbps / 24bit (core DTS / 48.0 KHz / 6ch. / 1509kbps / 24bit) / eng
Формат субтитров: softsub (SRT)
MediaInfo
Общее
Уникальный идентификатор : 171744550975509726239813242872618394097 (0x8134CC1F3066D27293F76F6A4FA5A1F1)
Полное имя : G:\!!!_torrent\The.Green.Inferno.2013.BDRemux.by_vedigo.mkv
Формат : Matroska
Версия формата : Version 4 / Version 2
Размер файла : 25,6 Гбайт
Продолжительность : 1 ч. 40 м.
Режим общего битрейта : Переменный
Общий поток : 36,3 Мбит/сек
Название фильма : The.Green.Inferno.2013.BDRemux.by_vedigo
Дата кодирования : UTC 2016-01-11 01:09:45
Программа кодирования : mkvmerge v8.8.0 ('Wind at my back') 64bit
Библиотека кодирования : libebml v1.3.3 + libmatroska v1.4.4
Видео
Идентификатор : 1
Формат : AVC
Формат/Информация : Advanced Video Codec
Профиль формата : High@L4.1
Параметр CABAC формата : Да
Параметр ReFrames формата : 4 кадра
Идентификатор кодека : V_MPEG4/ISO/AVC
Продолжительность : 1 ч. 40 м.
Вид битрейта : Переменный
Битрейт : 31,8 Мбит/сек
Максимальный битрейт : 35,0 Мбит/сек
Ширина : 1920 пикселей
Высота : 1080 пикселей
Соотношение сторон : 16:9
Режим частоты кадров : Постоянный
Частота кадров : 23,976 (24000/1001) кадра/сек
Цветовое пространство : YUV
Субдискретизация насыщенности : 4:2:0
Битовая глубина : 8 бит
Тип развёртки : Прогрессивная
Бит/(Пиксели*Кадры) : 0.639
Размер потока : 22,4 Гбайт (88%)
Заголовок : The.Green.Inferno.2013.BDRemux.by_vedigo
Default : Да
Forced : Нет
Аудио #1
Идентификатор : 2
Формат : AC-3
Формат/Информация : Audio Coding 3
Расширение режима : CM (complete main)
Параметр Endianness формата : Big
Идентификатор кодека : A_AC3
Продолжительность : 1 ч. 40 м.
Вид битрейта : Постоянный
Битрейт : 192 Кбит/сек
Каналы : 2 канала
Расположение каналов : Front: L R
Частота : 48,0 КГц
Частота кадров : 31,250 кадров/сек (1536 spf)
Метод сжатия : С потерями
Размер потока : 139 Мбайт (1%)
Заголовок : DVO @ 2D
Язык : Russian
Default : Да
Forced : Нет
Аудио #2
Идентификатор : 3
Формат : AC-3
Формат/Информация : Audio Coding 3
Расширение режима : CM (complete main)
Параметр Endianness формата : Big
Идентификатор кодека : A_AC3
Продолжительность : 1 ч. 40 м.
Вид битрейта : Постоянный
Битрейт : 192 Кбит/сек
Каналы : 2 канала
Расположение каналов : Front: L R
Частота : 48,0 КГц
Частота кадров : 31,250 кадров/сек (1536 spf)
Метод сжатия : С потерями
Размер потока : 139 Мбайт (1%)
Заголовок : VO @ Хихидок
Язык : Russian
Default : Нет
Forced : Нет
Аудио #3
Идентификатор : 4
Формат : DTS
Формат/Информация : Digital Theater Systems
Профиль формата : MA / Core
Режим : 16
Параметр Endianness формата : Big
Идентификатор кодека : A_DTS
Продолжительность : 1 ч. 40 м.
Вид битрейта : Переменный / Постоянный
Битрейт : 4095 Кбит/сек / 1509 Кбит/сек
Каналы : 6 каналов
Расположение каналов : Front: L C R, Side: L R, LFE
Частота : 48,0 КГц
Частота кадров : 93,750 кадра/сек (512 spf)
Битовая глубина : 24 бит
Метод сжатия : Без потерь / Lossy
Размер потока : 2,89 Гбайт (11%)
Заголовок : original
Язык : English
Default : Нет
Forced : Нет
Текст
Идентификатор : 5
Формат : UTF-8
Идентификатор кодека : S_TEXT/UTF8
Идентификатор кодека/Информация : UTF-8 Plain Text
Продолжительность : 1 ч. 36 м.
Битрейт : 37 бит/сек
Count of elements : 1015
Размер потока : 26,2 Кбайт (0%)
Заголовок : subtitle eng
Язык : English
Default : Нет
Forced : Нет
Меню
00:00:00.000 : :Глава 01
00:03:56.569 : :Глава 02
00:10:43.684 : :Глава 03
00:15:47.446 : :Глава 04
00:20:18.050 : :Глава 05
00:24:25.547 : :Глава 06
00:29:20.216 : :Глава 07
00:36:18.009 : :Глава 08
00:39:03.841 : :Глава 09
00:44:04.266 : :Глава 10
00:49:14.326 : :Глава 11
00:53:42.636 : :Глава 12
01:01:00.948 : :Глава 13
01:06:42.790 : :Глава 14
01:10:49.245 : :Глава 15
01:15:16.720 : :Глава 16
01:21:31.845 : :Глава 17
01:26:47.994 : :Глава 18
01:30:22.041 : :Глава 19
01:36:01.380 : :Глава 20
01:40:53.756 : :Глава 21
Скриншоты
Скачать

Скачать торрент!

Как скачивать? · Что такое торрент? · Рейтинг и ограничения

Сайт не распространяет и не хранит электронные версии произведений, а лишь предоставляет доступ к создаваемому пользователями каталогу ссылок на торрент-файлы, которые содержат только списки хеш-сумм

[Профиль] [ЛС]
Показать сообщения:    
Ответить на тему

Текущее время: Сегодня 21:36

Часовой пояс: GMT + 4



Вы не можете начинать темы
Вы не можете отвечать на сообщения
Вы не можете редактировать свои сообщения
Вы не можете удалять свои сообщения
Вы не можете голосовать в опросах
Вы не можете прикреплять файлы к сообщениям
Вы не можете скачивать файлы