Дубравка (Радомир Василевский) [1967, детский фильм, DVB]

Ответить на тему
 
Автор Сообщение

user ®

Стаж: 7 лет 7 месяцев

Сообщений: 20008

Пост Пост: #1 от 11-Янв-2016 15:00

[Цитировать]

Дубравка
Жанр: детский фильм
Год выпуска: 1967
Продолжительность: 01:15:23
Режиссёр: Радомир Василевский
В ролях: Лина Бракните, Ниеле Викирайте, Виталий Фадеев, К.Усатов, Ольга Аникина, Георгий Слабиняк, Сережа Тихонов, Миша Черныш, Алла Витрук, Виктор Семеновский, Рональд Гравис, Нина Вильвовская, Ольга Семенова, Валерий Зубарев, Георгий Милляр, Лев Перфилов
Описание: По мотивам рассказа Радия Погодина. Дубравка - это обычная девочка, с удивлением обнаружившая, что детство кончилось. Она выросла, но детские нотки проскальзывают во всех ее словах и поступках. Дубравка очень категорична и не готова прощать даже малейших слабостей. Но вот приходит первая любовь, и ее мир изменяется.
Качество видео: DVB
Формат видео: MPG
Видео: MPEG2, 720x576, 4:3, 25.00fps, 4117 Kbps
Аудио: MP2 2.0, 48 kHz, 192 kbps
Сравнение
[url=http://***/forum/viewtopic.php?t=860999]http://***/forum/viewtopic.php?t=860999[/url]
http://screenshotcomparison.com/comparison/157411/
MediaInfo
General
Complete name : Дубравка (1967) DVB.mpg
Format : MPEG-PS
File size : 2.32 GiB
Duration : 1h 15mn
Overall bit rate mode : Variable
Overall bit rate : 4 397 Kbps
Video
ID : 224 (0xE0)
Format : MPEG Video
Format version : Version 2
Format profile : Main@Main
Format settings, BVOP : Yes
Format settings, Matrix : Custom
Format settings, GOP : Variable
Format settings, picture structure : Frame
Duration : 1h 15mn
Bit rate mode : Variable
Bit rate : 4 117 Kbps
Maximum bit rate : 15.0 Mbps
Width : 720 pixels
Height : 576 pixels
Display aspect ratio : 4:3
Frame rate : 25.000 fps
Standard : PAL
Color space : YUV
Chroma subsampling : 4:2:0
Bit depth : 8 bits
Scan type : Interlaced
Scan order : Top Field First
Compression mode : Lossy
Bits/(Pixel*Frame) : 0.397
Time code of first frame : 00:00:00:00
Time code source : Group of pictures header
GOP, Open/Closed : Open
Stream size : 2.17 GiB (94%)
Audio
ID : 192 (0xC0)
Format : MPEG Audio
Format version : Version 1
Format profile : Layer 2
Duration : 1h 15mn
Bit rate mode : Constant
Bit rate : 192 Kbps
Channel(s) : 2 channels
Sampling rate : 48.0 KHz
Compression mode : Lossy
Delay relative to video : 16ms
Stream size : 104 MiB (4%)
Скриншоты
Скачать

Скачать торрент!

Как скачивать? · Что такое торрент? · Рейтинг и ограничения

Сайт не распространяет и не хранит электронные версии произведений, а лишь предоставляет доступ к создаваемому пользователями каталогу ссылок на торрент-файлы, которые содержат только списки хеш-сумм

[Профиль] [ЛС]
Показать сообщения:    
Ответить на тему

Текущее время: Сегодня 16:09

Часовой пояс: GMT + 4



Вы не можете начинать темы
Вы не можете отвечать на сообщения
Вы не можете редактировать свои сообщения
Вы не можете удалять свои сообщения
Вы не можете голосовать в опросах
Вы не можете прикреплять файлы к сообщениям
Вы не можете скачивать файлы