Догонялки со смертью / Мир преследования / Riaru Onigokko / The Chasing World (Сион Соно / Shion Sono) [2015, Япония, ужасы, HDRip] DVO

Ответить на тему
 
Автор Сообщение

user ®

Стаж: 13 лет

Сообщений: 15071

Пост Пост: #1 от 11-Янв-2016 11:54

[Цитировать]

Догонялки со смертью / Мир преследования / Riaru Onigokko / The Chasing World (Сион Соно / Shion Sono)
Страна: Япония
Жанр: ужасы
Год выпуска: 2015
Продолжительность: 01:25:30
Перевод: Любительский (двухголосый закадровый) den904 & DeadSno, перевод akira9
Cубтитры: нет
Режиссер: Сион Соно / Shion Sono
В ролях: Рейна Триндл, Марико Шинода, Эрина Мано, Maryjun Takahashi, Yuki Sakurai, Чихиро Шибата, Хонока Мураками, Aki Hiraoka, Мисаки Сейшо, Саяка Исояма
Описание: Обычная школьная поездка на озеро обернулась кровавой резнёй. Единственная выжившая школьница очень быстро понимает, что попала в замкнутый круг, она оказывается в новых местах, совершенно не помня людей, которые её окружают. Смерти множатся, ситуация запутывается, и только верные подруги постоянно выводят её из-под удара кровожадных убийц, ведут и просят. Вспомни. Пойми. Разорви цикл, останови убийства. Почему простая школьница стала ключом в этой бойне? Почему подруги идут на смерть, закрывая её от удара? Что нужно убийце? Вспомни и останови.
Доп. информация: http://www.kinopoisk.ru/film/898774/
Сэмпл: https://yadi.sk/i/zrb81oOHmj8x9
Качество видео: HDRip
Формат видео: AVI
Видео: XviD, 1830 kb/s, 720x384, 23.976 fps, 1 830 Kbps
Аудио: AC-3, 48 kHz, 448 kbps, (L C R),+ LRLFE
MediaInfo
General
Complete name : F:\Раздача на *трекер файлы\Dogonjalki.so.smertju.2015.L2.HDRip.avi
Format : AVI
Format/Info : Audio Video Interleave
File size : 1.37 GiB
Duration : 1h 25mn
Overall bit rate : 2 288 Kbps
Writing application : VirtualDubMod 1.5.10.3 | www.virtualdub-fr.org || (build 2550/release)
Writing library : VirtualDubMod build 2550/release
Video
ID : 0
Format : MPEG-4 Visual
Format profile : Advanced Simple@L5
Format settings, BVOP : 1
Format settings, QPel : No
Format settings, GMC : No warppoints
Format settings, Matrix : Custom
Codec ID : XVID
Codec ID/Hint : XviD
Duration : 1h 25mn
Bit rate : 1 830 Kbps
Width : 720 pixels
Height : 384 pixels
Display aspect ratio : 1.85:1
Frame rate : 23.976 fps
Color space : YUV
Chroma subsampling : 4:2:0
Bit depth : 8 bits
Scan type : Progressive
Compression mode : Lossy
Bits/(Pixel*Frame) : 0.276
Stream size : 1.09 GiB (80%)
Writing library : XviD 73
Audio
ID : 1
Format : AC-3
Format/Info : Audio Coding 3
Mode extension : CM (complete main)
Format settings, Endianness : Big
Codec ID : 2000
Duration : 1h 25mn
Bit rate mode : Constant
Bit rate : 448 Kbps
Channel(s) : 6 channels
Channel positions : Front: L C R, Side: L R, LFE
Sampling rate : 48.0 KHz
Bit depth : 16 bits
Compression mode : Lossy
Stream size : 274 MiB (20%)
Alignment : Split accross interleaves
Interleave, duration : 42 ms (1.00 video frame)
Interleave, preload duration : 500 ms
Скриншот c названием фильма Скриншоты
Скачать

Скачать торрент! Догонялки со смертью / Мир преследования / Riaru Onigokko / The Chasing World (Сион Соно / Shion Sono) [2015, Япония, ужасы, HDRip] DVO

Как скачивать? · Что такое торрент? · Рейтинг и ограничения

Сайт не распространяет и не хранит электронные версии произведений, а лишь предоставляет доступ к создаваемому пользователями каталогу ссылок на торрент-файлы, которые содержат только списки хеш-сумм

[Профиль] [ЛС]
Показать сообщения:    
Ответить на тему

Текущее время: Сегодня 18:22

Часовой пояс: GMT + 4



Вы не можете начинать темы
Вы не можете отвечать на сообщения
Вы не можете редактировать свои сообщения
Вы не можете удалять свои сообщения
Вы не можете голосовать в опросах
Вы не можете прикреплять файлы к сообщениям
Вы не можете скачивать файлы